<?xml version="1.0" standalone="no"?>
<!DOCTYPE svg PUBLIC "-//W3C//DTD SVG 1.1//EN" "http://www.w3.org/Graphics/SVG/1.1/DTD/svg11.dtd" >
<svg xmlns="http://www.w3.org/2000/svg" xmlns:xlink="http://www.w3.org/1999/xlink" version="1.1">
<metadata>
Created by FontForge 20161116 at Fri Jul 10 07:35:45 1998
 By Jimmy Warting
Copyright (c) 1996, Tobias Frere-Jones. Designed by Tobias Frere-Jones. Produced by The Font Bureau, Inc. All rights reserved.
</metadata>
<defs>
<font id="HighTowerText-Reg" horiz-adv-x="979" >
  <font-face 
    font-family="High Tower Text"
    font-weight="400"
    font-stretch="normal"
    units-per-em="2048"
    panose-1="2 4 5 2 5 5 6 3 3 3"
    ascent="1516"
    descent="-532"
    x-height="772"
    cap-height="1330"
    bbox="-352 -532.036 2259 1840"
    underline-thickness="102"
    underline-position="-323"
    unicode-range="U+0020-F002"
  />
<missing-glyph horiz-adv-x="1024" 
d="M128 0v1516h768v-1516h-768zM256 128h512v1260h-512v-1260z" />
    <glyph glyph-name=".notdef" horiz-adv-x="1024" 
d="M128 0v1516h768v-1516h-768zM256 128h512v1260h-512v-1260z" />
    <glyph glyph-name="glyph1" horiz-adv-x="0" 
 />
    <glyph glyph-name="glyph2" horiz-adv-x="508" 
 />
    <glyph glyph-name="space" unicode=" " horiz-adv-x="508" 
 />
    <glyph glyph-name="exclam" unicode="!" horiz-adv-x="547" 
d="M377 1188q-47 -301 -47 -653q0 -63 -6 -82q-10 -36 -52 -58q-12 -6 -20 -6q-14 0 -14 31q0 446 -54 754q-6 35 -6 55q0 67 115 94q27 6 43 6q48 0 48 -65q0 -28 -7 -76zM387 109q0 -57 -34.5 -96.5t-82.5 -39.5q-104 0 -104 117q0 55 36.5 92t86.5 37q98 0 98 -110z" />
    <glyph glyph-name="quotedbl" unicode="&#x22;" horiz-adv-x="780" 
d="M686 1255q0 -161 -65 -397q-7 -23 -43 -31q-21 -4 -28 5t-5 36q12 186 -39 379q-5 20 -5 33q0 42 93 53q25 3 39 3q36 0 47 -24q6 -14 6 -57zM322 1255q0 -172 -66 -397q-7 -23 -43 -31q-21 -4 -27.5 5t-5.5 36q1 18 1 39q0 172 -42 340q-5 20 -5 33q0 41 95 53
q25 3 39 3q54 0 54 -81z" />
    <glyph glyph-name="numbersign" unicode="#" horiz-adv-x="1073" 
d="M993 563q-17 -83 -63 -78q-97 11 -170 17q-10 -61 -33 -221q71 -8 215 -25q18 -3 8 -45q-19 -84 -65 -80q-58 5 -180 19q-13 -76 -37 -224q-3 -14 -25 -6q-44 24 -39 64q9 59 27 176q-68 6 -285 30q-14 -90 -43 -264q-2 -14 -27 -6q-42 25 -36 64q11 73 32 215
q-58 6 -178 18q-24 2 -14 64q20 77 61 71q53 -7 152 -18q11 70 33 219q-59 5 -189 18q-25 3 -12 64q16 77 61 72q56 -8 162 -21q9 57 27 178q6 24 35 15q38 -19 32 -62q-6 -48 -20 -141q98 -11 285 -35q11 71 32 223q6 24 35 15q42 -19 35 -62q-9 -62 -31 -184
q76 -7 209 -23q16 -2 6 -47zM686 510q-112 15 -285 35q-5 -36 -32 -219q97 -13 284 -37q12 72 33 221z" />
    <glyph glyph-name="dollar" unicode="$" horiz-adv-x="834" 
d="M748 215q0 -104 -84 -166t-236 -65q-4 -72 -12 -197q-2 -15 -18 -10q-55 19 -52 67q3 56 10 142q-135 7 -208 52q-66 41 -66 99q0 82 65 82q59 0 89 -74q32 -81 124 -92q12 175 17 291q-153 55 -207.5 106.5t-54.5 139.5q0 105 82 167q79 59 209 64q2 51 8 150
q1 27 32 14q45 -18 41 -61q-1 -22 -6 -105q110 -8 179 -45q73 -40 73 -98q0 -78 -65 -78q-58 0 -93 76q-26 59 -98 74l-18 -269q164 -57 224 -110q65 -56 65 -154zM401 754q-161 -3 -161 -115q0 -72 147 -131q6 73 14 246zM612 166q0 50 -34 82.5t-129 68.5q-6 -93 -17 -270
q180 6 180 119z" />
    <glyph glyph-name="percent" unicode="%" horiz-adv-x="1638" 
d="M1561 268q0 -132 -78 -216q-81 -87 -213 -87q-121 0 -202 81.5t-81 203.5q0 135 87 219q83 80 206 80q124 0 202.5 -78t78.5 -203zM1137 815q-207 -318 -572 -895q-10 -21 -45.5 5.5t-25.5 41.5q157 247 571 893q13 20 45 -4q36 -27 27 -41zM653 555q0 -132 -78 -216
q-80 -87 -213 -87q-121 0 -201.5 81.5t-80.5 203.5q0 135 87 219q83 80 206 80q124 0 202 -78.5t78 -202.5zM1405 256q0 225 -127 225q-135 0 -135 -217q0 -231 135 -231q127 0 127 223zM498 543q0 225 -127 225q-135 0 -135 -217q0 -232 135 -232q127 0 127 224z" />
    <glyph glyph-name="ampersand" unicode="&#x26;" horiz-adv-x="1622" 
d="M1544 104q11 -27 -26 -51q-104 -65 -203 -65q-106 0 -164 41q-53 38 -102 139q-15 30 -25 47q-190 -227 -453 -227q-212 0 -335 91q-127 94 -127 259q0 288 368 446q-149 128 -149 275q0 130 93 209q89 75 226 75q125 0 206 -63q85 -67 85 -176q0 -206 -229 -311
q71 -50 192 -148q102 -102 178 -207q73 134 133 320q11 31 11 57q0 58 -76 88q-35 14 -35 37q0 28 51 16q37 -8 139 -13q94 -4 128 -1q55 5 55 -24q0 -23 -80 -35q-42 -7 -59 -22t-31 -60q-82 -261 -187 -436q15 -24 46 -82q58 -112 99 -153q47 -48 111 -48q52 0 129 39
q20 10 31 -17zM786 1087q0 183 -147 183q-158 0 -158 -176q0 -124 156 -250q149 71 149 243zM983 287q-80 130 -231 286q-19 20 -203 154q-262 -119 -262 -344q0 -144 95 -226q89 -77 234 -77q205 0 367 207z" />
    <glyph glyph-name="quotesingle" unicode="'" horiz-adv-x="416" 
d="M322 1255q0 -172 -66 -397q-7 -23 -43 -31q-21 -4 -27.5 5t-5.5 36q1 18 1 39q0 172 -42 340q-5 20 -5 33q0 41 95 53q25 3 39 3q54 0 54 -81z" />
    <glyph glyph-name="parenleft" unicode="(" horiz-adv-x="793" 
d="M735 -342q-9 -17 -24 -17q-14 0 -37 17q-243 179 -382 405q-153 247 -153 510t153 511q139 226 382 405q23 17 37 17q15 0 24 -17q19 -35 -2 -53q-214 -193 -310 -374q-112 -211 -112 -489q0 -277 112 -488q96 -181 310 -374q21 -18 2 -53z" />
    <glyph glyph-name="parenright" unicode=")" horiz-adv-x="793" 
d="M653 573q0 -263 -152 -510q-140 -226 -382 -405q-24 -17 -38 -17t-24 17q-18 35 2 53q215 193 311 374q111 211 111 488q0 278 -111 489q-96 181 -311 374q-20 18 -2 53q10 17 24 17t38 -17q242 -179 382 -405q152 -248 152 -511z" />
    <glyph glyph-name="asterisk" unicode="*" horiz-adv-x="1044" 
d="M930 1053q13 -40 13 -66q0 -43 -42 -47q-297 -25 -326 -53q-3 -5 -3 -10q0 -54 239 -191q29 -16 29 -33q0 -26 -68 -73q-52 -37 -81 -37q-24 0 -36 28q-115 281 -149 289q-22 5 -53 -64q-35 -78 -64 -218q-8 -40 -30 -40q-24 0 -83.5 44t-59.5 75q0 17 20 31
q221 201 221 230q-5 31 -138 31q-66 0 -167 -7q-43 -3 -43 46q0 26 12 65q25 82 64 82q12 0 26 -9q263 -162 289 -149q10 5 10 28q0 64 -82 273q-9 22 -9 33q0 32 103 32q100 0 100 -52q0 -6 -1 -13q-65 -275 -43 -317q4 -7 15 -7q81 0 247 170q12 13 27 13q36 0 63 -84z
" />
    <glyph glyph-name="plus" unicode="+" horiz-adv-x="1083" 
d="M983 418q0 -20 -18 -38t-41 -18h-320v-352q0 -49 -80 -49q-45 0 -45 21v380h-358q-19 0 -19 27q0 45 58 45h319v357q0 49 96 49q29 0 29 -15v-391h361q18 0 18 -16z" />
    <glyph glyph-name="comma" unicode="," horiz-adv-x="504" 
d="M395 49q0 -260 -219 -391q-20 -12 -29 -12q-14 0 -26 32q-4 11 -4 18q0 17 57 56q98 68 98 154q0 44 -57 80q-80 50 -80 123q0 49 33 81.5t88 32.5q66 0 102.5 -48t36.5 -126z" />
    <glyph glyph-name="hyphen" unicode="-" horiz-adv-x="690" 
d="M594 633q0 -99 -59 -109q-185 -29 -347 -75q-46 -14 -64 -14q-28 0 -28 38q0 112 50 118.5t382 67.5q37 7 46 6q20 -4 20 -32z" />
    <glyph glyph-name="hyphen" unicode="&#x2010;" horiz-adv-x="690" 
d="M594 633q0 -99 -59 -109q-185 -29 -347 -75q-46 -14 -64 -14q-28 0 -28 38q0 112 50 118.5t382 67.5q37 7 46 6q20 -4 20 -32z" />
    <glyph glyph-name="period" unicode="." horiz-adv-x="504" 
d="M373 119q0 -62 -38 -105t-91 -43q-115 0 -115 131q0 59 40 99.5t93 40.5q111 0 111 -123z" />
    <glyph glyph-name="slash" unicode="/" horiz-adv-x="1008" 
d="M973 1438q-436 -817 -938 -1778q-12 -23 -55 2q-35 20 -35 33q0 5 4 12q310 590 938 1780q11 21 55 -2q41 -21 31 -47z" />
    <glyph glyph-name="zero" unicode="0" horiz-adv-x="977" 
d="M899 418q0 -188 -112 -307q-115 -123 -304 -123q-175 0 -290 114.5t-115 288.5q0 195 124 315q118 113 294 113q178 0 290.5 -111.5t112.5 -289.5zM721 399q0 152 -61.5 241t-167.5 89q-116 0 -179 -90q-59 -84 -59 -227q0 -162 63.5 -248t174.5 -86q107 0 168 82.5
t61 238.5z" />
    <glyph glyph-name="one" unicode="1" horiz-adv-x="629" 
d="M541 31q-4 -28 -23 -32q-7 -2 -47 1q-135 10 -291 -4q-36 -3 -43 0q-12 5 -12 35q0 25 49 41q66 21 66 110v404q0 63 -11 87q-16 37 -71 50q-38 9 -43 11q-20 11 -15 36q6 28 24 32q6 2 46 -1q134 -10 291 4q39 3 48 -2.5t9 -32.5q0 -25 -51 -41q-78 -24 -78 -111v-403
q0 -64 19 -92q20 -32 77 -45q36 -8 42 -12q17 -10 14 -35z" />
    <glyph glyph-name="two" unicode="2" horiz-adv-x="838" 
d="M805 135q-49 -78 -88 -223q-7 -27 -41 -18q-29 6 -19 48t-49 50q-104 14 -499 14q-13 0 -17 17q-5 17 6 26q250 204 341 322q79 101 79 196q0 135 -141 135q-96 0 -225 -90q-25 -17 -48 11q-12 15 -12 27q0 16 21 36q136 133 313 133q279 0 279 -211q0 -96 -97 -210
q-74 -88 -256 -238q-15 -13 -15 -21q0 -10 30 -10q193 0 241 2q85 4 148 33q19 9 41 2q26 -9 8 -31z" />
    <glyph glyph-name="three" unicode="3" horiz-adv-x="770" 
d="M666 117q0 -368 -574 -461q-36 -6 -41 29q-3 25 9 34q9 8 46 17q191 44 281 115q102 81 102 217q0 90 -64 142q-58 48 -146 48q-49 0 -68 -4q-28 -6 -39 29q-10 31 25 47q286 132 286 274q0 125 -133 125q-107 0 -205 -55q-30 -17 -55 12q-10 12 -10 20q0 14 29 35
q129 97 284 97q271 0 271 -201q0 -167 -265 -287q119 5 193 -58t74 -175z" />
    <glyph glyph-name="four" unicode="4" 
d="M928 53q-15 -58 -49 -55q-25 2 -88 5l-52 3q0 -92 4 -289q1 -22 -33 -35q-26 -7 -53 -14q-44 -12 -61 -9t-16 22q0 53 4 183q4 115 4 144q-9 1 -520 19q-17 0 -20 24q-3 25 11 41q501 574 588 742q6 11 27 11q20 0 63 -14q27 -8 13 -59q-9 -57 -9 -143v-516q54 0 93 8
q33 7 52.5 32t39.5 21q17 -4 17 -31t-15 -90zM584 119v471q-90 -138 -357 -463z" />
    <glyph glyph-name="five" unicode="5" horiz-adv-x="795" 
d="M737 842q-10 -19 -32 -99q-20 -68 -62 -68q-16 0 -41 9q-82 31 -264 31q-29 0 -35 -27q-13 -74 -37 -184q211 -71 312 -156q114 -97 114 -233q0 -203 -172 -328q-118 -86 -356 -152q-26 -7 -37 29q-12 39 25 51q354 123 354 357q0 130 -90.5 220t-298.5 169q-20 7 -17 28
q18 126 35 267q5 42 66 43q151 2 311 10q113 6 137 31q33 34 70 34q31 0 18 -32z" />
    <glyph glyph-name="six" unicode="6" horiz-adv-x="985" 
d="M907 395q0 -182 -116.5 -297.5t-296.5 -115.5t-290 119q-116 127 -116 352q0 301 200 531q180 207 464 298q28 9 36 -14q13 -36 -32 -60q-389 -202 -461 -524q91 94 254 94q156 0 256 -104q102 -107 102 -279zM729 377q0 136 -59 222q-63 91 -172 91q-110 0 -174 -82
t-64 -223q0 -142 64.5 -227.5t173.5 -85.5q111 0 171 82t60 223z" />
    <glyph glyph-name="seven" unicode="7" horiz-adv-x="928" 
d="M858 756q-47 -59 -209 -441q-137 -321 -254 -628q-4 -12 -97 -32q-84 -17 -110 -17q-28 0 -8 28q245 355 502 989q11 27 -8 27q-56 0 -245 -15q-202 -15 -286 -28q-41 -6 -41 23q0 25 39 96q15 29 39 76q13 24 29 24q30 0 45 -22q23 -26 92 -29q78 -4 485 -8
q22 -1 30 -15q7 -14 -3 -28z" />
    <glyph glyph-name="eight" unicode="8" 
d="M874 334q0 -161 -120 -258q-110 -88 -269 -88q-165 0 -269 82q-112 89 -112 241q0 208 252 340q-198 106 -198 295q0 132 107 219q100 80 235 80q140 0 229 -71q92 -75 92 -201q0 -185 -200 -293q253 -123 253 -346zM686 958q0 85 -52 140t-138 55q-84 0 -139.5 -52
t-55.5 -126q0 -161 219 -250q166 77 166 233zM711 305q0 100 -54 167q-58 74 -200 136q-193 -95 -193 -278q0 -119 64 -184.5t168 -65.5q87 0 146 51q69 61 69 174z" />
    <glyph glyph-name="nine" unicode="9" horiz-adv-x="954" 
d="M856 408q0 -271 -198 -496q-176 -200 -439 -295q-12 -4 -29 39q-5 23 62 59q137 74 241 183q109 114 148 231q-76 -68 -225 -68q-137 0 -230 90q-102 99 -102 267q0 180 117 295q111 110 272 110q168 0 272 -105q111 -112 111 -310zM694 455q0 274 -221 274
q-100 0 -156.5 -74t-56.5 -200q0 -301 207 -301q104 0 165.5 80.5t61.5 220.5z" />
    <glyph glyph-name="colon" unicode=":" horiz-adv-x="504" 
d="M383 664q0 -62 -37.5 -105t-89.5 -43q-117 0 -117 129q0 58 41 100q39 39 90 39q113 0 113 -120zM373 119q0 -62 -38 -105t-91 -43q-115 0 -115 131q0 59 40 99.5t93 40.5q111 0 111 -123z" />
    <glyph glyph-name="semicolon" unicode=";" horiz-adv-x="504" 
d="M383 664q0 -62 -37.5 -105t-89.5 -43q-117 0 -117 129q0 58 41 100q39 39 90 39q113 0 113 -120zM395 49q0 -260 -219 -391q-20 -12 -29 -12q-14 0 -26 32q-4 11 -4 18q0 17 57 56q98 68 98 154q0 44 -57 80q-80 50 -80 123q0 49 33 81.5t88 32.5q66 0 102.5 -48
t36.5 -126z" />
    <glyph glyph-name="less" unicode="&#x3c;" horiz-adv-x="803" 
d="M696 -12q-13 -20 -47 4l-518 356q-28 19 -28 33t28 33l512 352q39 27 51 10q7 -10 7 -17q0 -12 -33 -42l-375 -336l381 -342q35 -32 22 -51z" />
    <glyph glyph-name="equal" unicode="=" horiz-adv-x="1083" 
d="M895 602q0 -26 -18.5 -50t-42.5 -24h-625q-19 0 -19 35q0 58 58 58h629q18 0 18 -19zM895 248q0 -26 -18.5 -50t-42.5 -24h-625q-19 0 -19 37q0 57 58 57h629q18 0 18 -20z" />
    <glyph glyph-name="greater" unicode="&#x3e;" horiz-adv-x="803" 
d="M672 348l-512 -352q-40 -27 -51 -10q-7 10 -7 17q0 12 33 42l375 336l-381 342q-35 32 -23 51q13 20 48 -4l518 -356q27 -19 27 -33t-27 -33z" />
    <glyph glyph-name="question" unicode="?" horiz-adv-x="795" 
d="M731 928q0 -149 -91 -220q-66 -51 -265 -106q-38 -10 -45 -51q-6 -33 -23 -109q-8 -32 -47 -47q-13 -4 -21 -4q-18 1 -18 29q0 183 -10 268q-8 68 49 68q221 0 300 43q65 37 65 129q0 126 -74 206q-71 76 -178 76q-57 0 -111 -73q-30 -41 -72 -41q-37 0 -62.5 39
t-25.5 104q0 41 53 69q57 31 148 31q181 0 306 -125q122 -121 122 -286zM381 109q0 -57 -34.5 -96.5t-82.5 -39.5q-104 0 -104 117q0 54 36 91.5t85 37.5q100 0 100 -110z" />
    <glyph glyph-name="at" unicode="@" horiz-adv-x="2007" 
d="M1876 610q0 -265 -129 -417q-116 -136 -289 -136q-125 0 -197 65q-75 66 -77 185q-1 20 -19 20q-12 0 -20 -14q-160 -256 -316 -256q-97 0 -152.5 71.5t-55.5 199.5q0 243 151 420q157 182 307 182q93 0 168 -27q64 -23 84 0q46 44 57 44q7 0 17 -7q20 -9 -6 -86
q-36 -109 -63 -263q-23 -138 -23 -212q0 -236 190 -236q114 0 195 108q94 124 94 337q0 347 -196 523q-187 169 -541 169q-333 0 -551.5 -234t-218.5 -589q0 -365 212.5 -581t577.5 -216q269 0 580 168q13 7 34 -28t21 -56q0 -7 -4 -8q-339 -137 -649 -137q-428 0 -676 217
q-254 223 -254 624q0 387 272 645t672 258q367 0 581 -184q224 -194 224 -549zM1217 709q0 122 -185 122q-106 0 -178 -120q-78 -130 -78 -342q0 -187 127 -187q104 0 212 198q102 186 102 329z" />
    <glyph glyph-name="A" unicode="A" horiz-adv-x="1567" 
d="M1501 20q-6 -27 -13 -32q-6 -4 -28 2q-143 26 -418 6q-52 -4 -57 20q-5 28 33 43q108 44 108 82q0 15 -12 43q-74 177 -123 285q-71 -4 -250 -4q-148 0 -252 8q-35 -86 -98 -240q-14 -35 -14 -63q0 -56 61 -82q94 -40 92 -61q-2 -34 -63 -27q-188 20 -348 -12
q-42 -9 -47 30q-4 26 65 56q74 31 125 143q195 423 252 556q138 319 195 521q8 31 79 58q17 6 43 -58q216 -520 484 -1112q43 -94 145 -125q46 -13 41 -37zM958 547q-66 150 -206 465q-8 17 -18 17t-17 -17l-191 -461q107 -8 240 -8q82 0 192 4z" />
    <glyph glyph-name="B" unicode="B" horiz-adv-x="1313" 
d="M1176 371q0 -193 -149 -290q-136 -89 -380 -89q-27 0 -128.5 6t-164.5 6q-102 0 -161 -12q-37 -8 -43 20q-6 25 43 45q56 24 73 43q25 26 25 84v938q0 95 -111 117q-55 11 -55 35q0 30 15 36q10 4 46 -1q44 -6 144 -6q55 0 178.5 3t153.5 3q186 0 293 -70
q120 -78 120 -231q0 -204 -248 -283q-28 -9 2 -14q347 -60 347 -340zM872 991q0 131 -66 189.5t-212 58.5q-116 0 -125 -34q-2 -8 -2 -21v-434h88q166 0 241.5 56t75.5 185zM971 348q0 166 -111 250q-95 72 -248 72q-89 0 -145 -11v-495q0 -96 199 -96q305 0 305 280z" />
    <glyph glyph-name="C" unicode="C" horiz-adv-x="1530" 
d="M1393 326q-13 -133 -43 -215q-20 -53 -154 -95q-146 -45 -336 -45q-314 0 -523 187q-212 190 -212 487q0 303 219 504q211 194 510 194q212 0 356 -51q128 -45 133 -84q11 -76 11 -247q0 -28 -51 -33q-39 -4 -48 24q-53 171 -141.5 237t-265.5 66q-222 0 -362 -147
q-152 -160 -152 -438q0 -276 160 -446q156 -167 399 -167q158 0 249 68q87 65 142 213q16 43 72 31q40 -9 37 -43z" />
    <glyph glyph-name="D" unicode="D" horiz-adv-x="1647" 
d="M1522 682q0 -348 -230 -528q-215 -166 -598 -166q-32 0 -145 6t-174 6q-82 0 -182 -8q-43 -4 -43 35q0 26 43 30q98 10 98 107v958q0 54 -22 73q-18 15 -79 28q-51 10 -62 17t-13 30q-3 24 21 31q5 1 44 4q215 14 570 14q345 0 555 -166q217 -172 217 -471zM1313 655
q0 580 -596 580h-140q-110 -10 -110 -61v-928q0 -98 52 -131t208 -33q586 0 586 573z" />
    <glyph glyph-name="E" unicode="E" horiz-adv-x="1266" 
d="M1147 250q-28 -119 -37 -240q-1 -19 -61 -16q-156 8 -398 8q-266 0 -458 -10q-43 -2 -43 35q0 26 43 30q60 7 77 23q21 20 21 84v921q0 93 -17 117.5t-94 48.5q-41 13 -30 49q5 19 16 21q10 3 53 -4q64 -10 334 -10q269 0 463 12q65 4 65 -9q0 -5 -2 -10
q-21 -98 -18 -225q1 -31 -29 -31q-28 0 -39 27q-28 70 -49 95q-32 38 -92 48q-48 9 -338 9q-33 0 -42 -11q-5 -6 -5 -30v-418q0 -25 29 -25q92 2 264 13q30 3 44 29q11 20 23 83q9 43 47 31q34 -6 29 -31q-28 -136 -18 -354q1 -24 -33 -29q-30 -4 -35 33q-10 77 -25.5 101.5
t-58.5 29.5q-82 10 -248 10q-18 0 -18 -14v-436q0 -93 108 -114q27 -5 187 -5q249 0 311 174q15 41 49 27q32 -8 25 -37z" />
    <glyph glyph-name="F" unicode="F" horiz-adv-x="1155" 
d="M1059 1300q-17 -67 -21 -225q0 -31 -28 -31t-39 27q-30 73 -57 102q-32 34 -85 41q-57 9 -284 9q-52 0 -68 -11q-10 -7 -10 -30v-453q0 -23 29 -22q89 1 258 12q33 4 44.5 21.5t22.5 90.5q7 40 47 31q34 -7 29 -31q-28 -136 -18 -354q1 -26 -33 -28q-28 -3 -35 30
q-26 125 -96.5 133.5t-229.5 8.5q-18 0 -18 -13v-450q0 -50 37 -68q29 -15 125 -27q49 -5 43 -43q-6 -33 -88 -26q-237 19 -391 -2q-43 -6 -43 35q0 26 43 30q98 11 98 172v856q0 66 -23.5 101.5t-87.5 64.5q-40 18 -30 49q5 19 16 21q10 3 53 -4q63 -10 297 -10
q276 0 477 12q67 4 67 -11q0 -4 -1 -8z" />
    <glyph glyph-name="G" unicode="G" horiz-adv-x="1640" 
d="M1563 596q0 -32 -47 -39q-66 -10 -77 -14q-36 -15 -36 -58v-313q0 -59 -154 -126q-173 -75 -389 -75q-314 0 -523 187q-212 190 -212 487q0 303 219 504q212 194 510 194q229 0 389 -55q118 -40 123 -80q10 -76 10 -225q0 -33 -41 -35q-48 -2 -59 27
q-55 149 -154.5 214.5t-273.5 65.5q-240 0 -375 -147q-139 -153 -139 -438q0 -275 160 -443q155 -164 399 -164q125 0 233 45q103 43 103 87v208q0 74 -30 107q-26 30 -103 53q-57 17 -54 41q4 26 13.5 32t48.5 1q213 -26 414 -4q11 1 18 1q27 0 27 -38z" />
    <glyph glyph-name="H" unicode="H" horiz-adv-x="1763" 
d="M1657 27q0 -26 -6.5 -32t-36.5 -3q-196 17 -395 8q-39 -2 -49.5 4.5t-10.5 30.5q0 32 53 39q84 11 84 90v393q0 43 -10 57.5t-47 14.5h-707q-44 0 -54.5 -11t-10.5 -57v-397q0 -57 125 -90q55 -15 55 -39q0 -25 -9 -31t-50 -4q-199 9 -395 -8q-30 -3 -36.5 3t-6.5 32
t43 30q98 10 98 107v960q0 93 -111 117q-40 9 -47.5 13.5t-7.5 21.5q0 13 2 19q6 19 59 16q253 -14 408 0q28 2 36.5 -4t8.5 -31q0 -19 -45 -29q-80 -17 -96 -27q-31 -20 -31 -81v-338q0 -70 68 -70h696q41 0 51 9q14 13 14 65v344q0 54 -28 72q-16 11 -84 24q-56 11 -56 35
q0 27 10 34t52 3q111 -11 228 -5q83 4 167 9q28 0 35.5 -5t7.5 -32q0 -26 -43 -31q-110 -12 -110 -104v-985q0 -49 35 -72q28 -18 104 -35q43 -9 43 -30z" />
    <glyph glyph-name="I" unicode="I" horiz-adv-x="801" 
d="M662 1294q0 -25 -54 -41q-121 -36 -121 -94v-973q0 -94 111 -114q55 -10 55 -39q0 -25 -9.5 -31t-51.5 -4q-264 11 -408 0q-37 -3 -43 14q-2 7 -2 21q0 20 45 30q84 19 97 27q32 20 32 82v981q0 83 -112 102q-47 8 -47 29q0 29 7.5 35.5t35.5 3.5q195 -21 403 4
q39 5 46 3q16 -5 16 -36z" />
    <glyph glyph-name="J" unicode="J" horiz-adv-x="778" 
d="M643 1294q4 -26 -47 -41q-64 -18 -85 -33q-28 -21 -28 -67v-1055q0 -227 -127 -351q-115 -112 -301 -112q-122 0 -192 43q-21 13 -21 36t19 63q28 59 61 59q20 0 80 -39q79 -51 143 -51q90 0 124 56q38 62 38 237v1124q0 43 -25 60q-18 12 -94 32q-43 12 -41 39
q3 31 46 27q215 -20 403 8q28 4 35.5 -2t11.5 -33z" />
    <glyph glyph-name="K" unicode="K" horiz-adv-x="1468" 
d="M1409 35q0 -24 -6.5 -30t-32.5 -5q-259 11 -412 -10q-37 -5 -43 16q-6 24 41 45q28 12 28 47t-32 68q-140 144 -481 469v-471q0 -57 119 -90q53 -15 53 -39q0 -25 -9 -31t-46 -4q-177 8 -391 -8q-41 -3 -41 35q0 26 41 30q94 11 94 107v960q0 93 -105 117q-37 9 -45 13.5
t-8 21.5q0 24 9 30.5t51 4.5q251 -14 399 0q43 4 43 -35q0 -19 -43 -29q-77 -17 -92 -28q-29 -20 -29 -80v-437q282 236 455 392q51 45 51 85t-55 60q-32 11 -34 13q-15 9 -11 30q3 23 12 27q10 5 47 -2q194 -20 356 -4q25 2 32 -3t11 -28q4 -20 -5 -27.5t-44 -17.5
q-94 -29 -237 -146q-106 -86 -445 -370q366 -349 574 -535q91 -82 186 -108q45 -13 45 -33z" />
    <glyph glyph-name="L" unicode="L" horiz-adv-x="1192" 
d="M1124 250q-34 -128 -34 -240q0 -19 -64 -16q-158 8 -391 8q-248 0 -442 -10q-29 -2 -36 4.5t-7 30.5q0 26 43 30q98 10 98 105v923q0 70 -19 104q-23 40 -88 62q-39 14 -34 45q3 22 13 26t52 -1q146 -16 348 2q36 3 41 2q20 -3 23 -27q3 -27 -13 -37q-6 -4 -41 -12
q-70 -16 -88 -36.5t-18 -86.5v-895q0 -84 56.5 -114.5t205.5 -30.5q142 0 210.5 36.5t111.5 137.5q16 40 49 27q32 -8 24 -37z" />
    <glyph glyph-name="M" unicode="M" horiz-adv-x="1978" 
d="M1860 33q0 -25 -10.5 -31t-53.5 -4q-261 11 -405 0q-45 -3 -45 35q0 21 45 30q89 20 107 33q22 17 20 76l-35 854q-1 26 -14 26q-10 0 -19 -18q-178 -358 -250 -509q-145 -301 -205 -457q-27 -73 -28 -75q-10 -18 -29 -24q-10 -3 -17 -3q-20 0 -36 59q-63 226 -434 1003
q-11 23 -24 23q-16 0 -17 -31q-14 -297 -33 -791q-6 -132 133 -157q55 -10 55 -39q0 -25 -10.5 -31t-52.5 -4q-230 9 -357 0q-45 -3 -45 35q0 21 45 30q80 17 105 53q20 28 22 101l35 885q2 58 -23 89q-22 27 -89 58q-48 22 -45 47q2 27 43 21q153 -22 268 -8q44 5 60 -2
t28 -35l418 -957q8 -20 14 -20t18 27q40 86 447 927q25 51 63 51q93 0 260 27q38 6 47 4q17 -5 17 -37q0 -24 -53 -41q-125 -39 -123 -94l37 -973q2 -58 29 -82q22 -21 81 -32q56 -11 56 -39z" />
    <glyph glyph-name="N" unicode="N" horiz-adv-x="1743" 
d="M1649 1296q0 -25 -54 -41q-120 -34 -120 -139v-719q0 -227 6 -366q2 -53 -25 -60q-45 -11 -76 47q-50 95 -392 468q-286 311 -554 581q-9 9 -18 5q-10 -5 -10 -23v-820q0 -132 133 -157q55 -11 55 -39q0 -38 -62 -35q-238 10 -370 0q-43 -3 -43 35q0 21 43 30
q77 18 103 49t26 105v885q0 58 -24 89q-23 28 -89 58q-49 23 -47 47q3 27 45 21q130 -18 225 -8q49 5 88 -37l838 -893q17 -19 23 -19q8 0 8 27v723q0 127 -133 150q-47 8 -47 28q0 42 43 37q164 -18 366 4q35 4 45 1q17 -5 17 -34z" />
    <glyph glyph-name="O" unicode="O" horiz-adv-x="1694" 
d="M1569 659q0 -289 -214 -490q-210 -198 -505 -198q-310 0 -515 186q-210 192 -210 496q0 294 213 494q210 196 512 196q308 0 512 -191q207 -194 207 -493zM1366 625q0 291 -159 460q-153 162 -404 162q-208 0 -341.5 -153.5t-133.5 -399.5q0 -295 155 -464
q151 -164 410 -164q209 0 341 154t132 405z" />
    <glyph glyph-name="P" unicode="P" horiz-adv-x="1223" 
d="M1130 950q0 -190 -155 -300q-148 -103 -385 -103q-19 0 -63.5 3t-49.5 3q-10 0 -10 -31v-358q0 -47 19.5 -61t105.5 -29q55 -10 55 -39q0 -25 -9 -31t-50 -4q-181 8 -395 -8q-43 -3 -43 35q0 26 43 30q98 10 98 107v958q0 95 -111 117q-55 11 -55 35q0 31 15 37
q10 4 46 -2q46 -9 133 -9q44 0 158.5 4.5t184.5 4.5q214 0 338 -90q130 -94 130 -269zM936 928q0 175 -82 245q-77 66 -260 66q-75 0 -101 -20.5t-26 -88.5v-479q0 -28 133 -28q155 0 245.5 79t90.5 226z" />
    <glyph glyph-name="Q" unicode="Q" horiz-adv-x="1694" 
d="M2220 -258q6 -39 -14 -45q-217 -62 -457 -62q-243 0 -459 83q-237 90 -375 255q-10 0 -32 -1t-33 -1q-310 0 -515 186q-210 192 -210 496q0 294 213 494q210 196 512 196q308 0 512 -191q207 -194 207 -493q0 -212 -123 -386q-119 -168 -313 -246q118 -144 303 -225
q176 -76 364 -76q192 0 389 38q22 5 31 -22zM1366 625q0 291 -159 460q-153 162 -404 162q-208 0 -341.5 -153.5t-133.5 -399.5q0 -295 155 -464q151 -164 410 -164q209 0 341 154t132 405z" />
    <glyph glyph-name="R" unicode="R" horiz-adv-x="1343" 
d="M1315 -2q1 -23 -39 -23q-359 0 -678 615q-123 -6 -131 -6v-420q0 -47 23 -62.5t102 -27.5q55 -9 55 -39q0 -25 -9 -31t-50 -4q-181 8 -395 -8q-43 -3 -43 35q0 26 43 30q98 10 98 107v958q0 95 -111 117q-55 11 -55 35q0 37 37 37q11 0 24 -2q41 -6 125 -6q28 0 141 3
t210 3q200 0 316 -75q130 -83 130 -245q0 -277 -320 -366q102 -232 240 -398q141 -170 254 -188q31 -5 33 -39zM913 965q0 148 -76 211t-243 63q-75 0 -101 -20.5t-26 -88.5v-471q242 8 348 85q98 71 98 221z" />
    <glyph glyph-name="S" unicode="S" horiz-adv-x="1190" 
d="M1030 348q0 -169 -124 -271q-129 -106 -353 -106q-295 0 -346 109q-31 66 -62 168q-13 47 19 61q40 18 63 -16q85 -126 171 -179q83 -51 194 -51q278 0 278 222q0 87 -61 148q-59 57 -244 157q-234 126 -308 198q-91 89 -91 220q0 139 116.5 237t297.5 98q128 0 249 -32
q93 -25 105 -64q25 -81 33 -200q2 -43 -29 -48q-39 -6 -55 27q-62 125 -141 176q-73 47 -191 47q-105 0 -166 -49t-61 -139q0 -84 60 -145q57 -57 210 -134q236 -118 325 -200q111 -101 111 -234z" />
    <glyph glyph-name="T" unicode="T" horiz-adv-x="1481" 
d="M1397 997q-1 -18 -4.5 -24.5t-20.5 -9.5q-37 -8 -49 28q-43 133 -102 177q-82 61 -287 61q-83 0 -91 -18q-3 -6 -3 -17v-997q0 -64 30 -89.5t119 -46.5q38 -8 43 -11q14 -9 10 -38q-3 -23 -22 -25q-2 -1 -41 3q-264 23 -436 2q-41 -5 -53 0q-10 5 -13 24q-8 32 35 43
q86 22 116 53q34 35 34 113v969q0 29 -36 34q-4 1 -59 1q-190 0 -280 -66q-68 -49 -121 -180q-17 -41 -47 -27q-34 8 -25 37q35 108 35 305q0 23 61 19q216 -14 478 -14q496 0 643 20q56 8 61 -18q28 -133 25 -308z" />
    <glyph glyph-name="U" unicode="U" horiz-adv-x="1673" 
d="M1589 1282q0 -20 -45 -31q-78 -18 -99 -36q-28 -25 -28 -93v-573q0 -275 -143 -424q-147 -154 -426 -154q-590 0 -590 555v600q0 95 -111 115q-38 7 -46.5 13t-8.5 24q0 31 15 36q7 3 47 1q269 -14 411 0q30 3 36.5 -3t6.5 -34q0 -21 -43 -31q-84 -18 -97 -26
q-32 -20 -32 -82v-578q0 -255 106 -374t341 -119q403 0 403 464v576q0 68 -35 99q-28 26 -98 38q-55 10 -55 37q0 31 16 36q6 2 47 1q278 -11 383 0q40 4 44 -16q1 -7 1 -21z" />
    <glyph glyph-name="V" unicode="V" horiz-adv-x="1663" 
d="M1583 1290q0 -22 -11 -31t-54 -22q-52 -16 -117 -137q-243 -454 -496 -1077q-17 -43 -74 -58q-2 -1 -6 -2q-23 0 -39 60q-33 125 -199 484t-317 628q-52 94 -141 112q-49 10 -49 29q0 46 43 41q183 -20 428 18q36 6 45 4q16 -5 16 -34q0 -23 -51 -41q-100 -37 -100 -78
q0 -17 12 -41q102 -200 391 -869q10 -22 19 -22q8 0 18 22q83 192 369 826q10 24 10 44q0 63 -121 105q-45 16 -43 47q3 35 66 27q199 -24 356 -4q45 6 45 -31z" />
    <glyph glyph-name="W" unicode="W" horiz-adv-x="2294" 
d="M2212 1274q0 -34 -64 -53q-69 -21 -116 -138q-225 -554 -418 -1060q-16 -42 -74 -58q-3 -2 -7 -2q-28 0 -40 60q-46 218 -334 868q-125 -314 -332 -868q-15 -42 -71 -58l-8 -2q-28 0 -39 60q-38 201 -439 1095q-41 92 -141 115q-49 11 -49 29q0 42 43 38q155 -14 387 21
q39 6 49 1q9 -5 12 -30q5 -20 -49 -47q-64 -32 -64 -73q0 -18 9 -42q100 -265 319 -843q7 -19 19 -19q11 0 18 19l277 737q-16 33 -45 94q-36 75 -127 117q-46 21 -43 41q5 45 45 39q177 -29 397 -6q40 4 49.5 -1.5t9.5 -31.5q0 -25 -51 -41q-98 -31 -98 -65q0 -13 10 -40
l322 -843q7 -20 20 -20q11 0 19 20l299 798q8 24 8 43q0 69 -119 109q-45 15 -43 45q2 22 11 27q11 5 55 0q186 -22 350 -4q43 4 43 -31z" />
    <glyph glyph-name="X" unicode="X" horiz-adv-x="1589" 
d="M1481 33q-3 -43 -43 -37q-180 28 -412 2q-33 -4 -41 -1q-16 6 -14 34q1 25 50 41t49 58q0 23 -17 46q-141 187 -287 391q-208 -246 -266 -346q-26 -44 -26 -77q0 -49 61 -72q43 -17 40 -47q-2 -35 -63 -27q-184 23 -352 4q-26 -3 -33.5 2t-7.5 29q0 34 59 53
q96 30 182 137q42 51 355 418q-126 182 -174 248q-102 142 -181 235q-72 86 -186 113q-47 11 -47 29q0 42 41 39q176 -17 412 20q34 5 43 3q16 -5 16 -34q0 -24 -49 -43q-55 -20 -55 -54q0 -24 28 -62q159 -222 254 -365q210 252 250 332q22 44 22 77q0 51 -55 72
q-45 18 -43 47q3 35 62 27q197 -25 354 -4q43 6 43 -31q0 -32 -66 -57q-101 -39 -178 -133q-198 -243 -334 -406q212 -311 383 -506q88 -99 181 -125q46 -12 45 -30z" />
    <glyph glyph-name="Y" unicode="Y" horiz-adv-x="1575" 
d="M1516 1290q0 -34 -64 -53q-73 -22 -162 -137q-175 -228 -218 -286q-101 -138 -177 -263v-354q0 -71 27 -97q22 -20 102 -39q60 -13 53 -49q-4 -23 -24 -25q-2 -1 -41 3q-199 17 -391 2q-60 -11 -66 24q-6 33 35 43q82 22 106.5 53.5t24.5 112.5v273q-136 266 -451 637
q-81 95 -164 112q-49 10 -49 29q0 46 43 41q181 -22 441 18q36 6 45 4q16 -5 16 -34q0 -22 -51 -41q-87 -33 -87 -71q0 -19 21 -48q127 -170 332 -488q12 -18 19 -18q8 0 20 18q44 66 150.5 216t158.5 229q26 38 26 66q0 53 -91 83q-49 17 -45 47q4 35 67 27q197 -24 351 -4
q43 5 43 -31z" />
    <glyph glyph-name="Z" unicode="Z" horiz-adv-x="1399" 
d="M1270 309q4 -183 -29 -307q-6 -23 -61 -18q-211 18 -482 18q-391 0 -520 -10q-55 -5 -67 14q-11 24 18 62q487 624 823 1114q13 19 13 25q0 16 -88 16h-244q-194 0 -278 -57q-67 -45 -122 -179q-16 -40 -49 -26q-32 7 -24 36q35 140 35 306q0 22 63 18q215 -14 500 -14
q276 0 430 10q52 3 59 -12q9 -19 -18 -54q-452 -572 -807 -1085q-18 -26 -18 -40q0 -23 55 -28q133 -10 344 -10q213 0 288 48q64 41 107 179q12 38 47 29q24 -6 25 -35z" />
    <glyph glyph-name="bracketleft" unicode="[" horiz-adv-x="840" 
d="M782 -309q-1 -14 -5 -20q-6 -11 -42 -7q-65 7 -254 13q-175 5 -229 4q-46 -2 -59 7q-18 12 -15 52q17 244 17 842q0 600 -17 843q-3 41 15 52q13 9 59 8q54 -2 229 3q189 6 254 13q45 5 47 -26q3 -34 -28 -37q-200 -19 -338 -43q-48 -9 -62 -38q-9 -18 -10 -50
q-4 -136 -4 -723q0 -590 4 -725q1 -41 16 -61t56 -27q138 -25 338 -43q31 -3 28 -37z" />
    <glyph glyph-name="backslash" unicode="\" horiz-adv-x="1008" 
d="M1059 -293q3 -7 3 -12q0 -13 -34 -33q-43 -25 -55 -2q-503 961 -938 1778q-11 26 32 48t54 1z" />
    <glyph glyph-name="bracketright" unicode="]" horiz-adv-x="840" 
d="M662 -260q2 -40 -13.5 -50.5t-60.5 -8.5q-54 1 -230 -4q-189 -6 -254 -13q-45 -5 -47 27q-2 34 29 37q199 18 338 43q48 8 62 37q9 18 10 51q4 135 4 725q0 587 -4 723q-2 41 -16.5 60.5t-55.5 27.5q-139 24 -338 43q-31 3 -29 37q1 13 5 19q7 11 42 7q65 -7 254 -13
q176 -5 230 -3q45 1 60.5 -9t13.5 -51q-17 -243 -17 -843q0 -598 17 -842z" />
    <glyph glyph-name="asciicircum" unicode="^" horiz-adv-x="1143" 
d="M956 825q12 -15 -6 -24q-42 -22 -61 -6q-191 161 -318 301q-119 -135 -321 -303q-20 -17 -55 8q-18 12 -7 26q215 272 328 480q15 26 55 26q43 0 56 -24q73 -147 329 -484z" />
    <glyph glyph-name="underscore" unicode="_" horiz-adv-x="823" 
d="M831 -295h-839v121h839v-121z" />
    <glyph glyph-name="grave" unicode="`" 
d="M676 952q11 -14 -12 -28q-33 -20 -54 -2q-137 119 -256 264q-22 34 -22 53q0 17 43.5 42.5t83.5 25.5q22 0 49 -29q12 -13 59 -126q50 -121 109 -200z" />
    <glyph glyph-name="a" unicode="a" horiz-adv-x="918" 
d="M881 96q0 -21 -76.5 -63.5t-122.5 -42.5q-39 0 -69 38t-42 38q-9 0 -95 -41t-173 -41q-82 0 -137 48q-60 53 -60 144q0 173 396 248q68 13 69 55l2 64q6 164 -145 164q-43 0 -81.5 -77t-110.5 -83q-82 -8 -82 69q0 48 122 112q128 67 246 67q203 0 201 -193l-4 -412
q-1 -65 55 -65q11 0 42 5t36 5q29 0 29 -39zM573 324q1 25 -11.5 33t-39.5 3q-241 -43 -241 -157q0 -115 125 -115q50 0 103 19q62 22 62 53z" />
    <glyph glyph-name="b" unicode="b" horiz-adv-x="1026" 
d="M946 449q0 -198 -138 -332q-132 -129 -314 -129q-103 0 -215 34q-108 33 -109 60q-1 23 1 161q3 169 3 246q0 116 -2 336.5t-2 292.5t-22 99q-20 24 -87 38q-26 9 -26 33q0 21 39 35q56 20 139 67q66 37 82 37q31 0 31 -51q0 -4 -3 -104q-2 -94 -1 -191l2 -346
q0 -49 34 -28q120 69 250 69q150 0 244 -90.5t94 -236.5zM786 360q0 137 -76 225q-72 83 -175 83q-71 0 -140 -37t-69 -78v-268q0 -193 213 -193q111 0 179 71.5t68 196.5z" />
    <glyph glyph-name="c" unicode="c" horiz-adv-x="874" 
d="M795 129q0 -37 -103 -90q-112 -57 -221 -57q-170 0 -278 96q-113 102 -113 276q0 187 130 311q127 121 312 121q112 0 195 -32q76 -30 76 -64q0 -23 -37.5 -70t-61.5 -47q-15 0 -69 43q-101 80 -158 80q-90 0 -148 -68q-61 -74 -61 -204q0 -157 88 -251q80 -85 193 -85
q112 0 211 62q9 6 24 6q21 0 21 -27z" />
    <glyph glyph-name="d" unicode="d" horiz-adv-x="1069" 
d="M1028 98q4 -9 4 -13q0 -21 -102 -69q-118 -55 -139 -55q-18 0 -41.5 60.5t-32.5 60.5q1 0 -113.5 -52.5t-173.5 -52.5q-132 0 -229 95q-117 113 -117 317q0 171 138 295q122 109 249 109q90 0 215 -23q39 -7 39 23v342q0 58 -28 82q-18 16 -85 38q-32 12 -32 39
q0 25 43 37q59 18 141 60q68 36 84 36q37 0 37 -51q0 1 -3 -99.5t-3 -195.5v-909q0 -57 51 -57q19 0 51 6q35 6 47 -23zM719 197v358q0 44 -78 91q-83 50 -180 50q-209 0 -209 -258q0 -138 83 -236t195 -98q51 0 120 34t69 59z" />
    <glyph glyph-name="e" unicode="e" horiz-adv-x="891" 
d="M827 168q0 -43 -116 -107q-132 -71 -271 -71q-151 0 -254 99q-110 105 -110 280q0 198 123 318q115 112 282 112q99 0 185 -63q77 -56 102 -128q9 -25 27 -28q26 -5 26 -35q0 -41 -98 -70l-461 -137q45 -238 244 -238q115 0 262 84q22 13 43 13q16 0 16 -29zM590 569
q0 55 -44.5 96.5t-109.5 41.5q-184 0 -184 -265v-24l272 82q66 19 66 69z" />
    <glyph glyph-name="f" unicode="f" horiz-adv-x="725" 
d="M831 1364q0 -42 -38 -98t-60 -56q-27 0 -57 27q-63 45 -111 45q-190 0 -190 -266v-215q0 -50 86 -43l127 10q75 6 82 -24q2 -10 2 -29q0 -41 -20 -51q-12 -7 -62 -7h-127q-85 0 -88 -36q-2 -21 0 -435q0 -56 52 -80q39 -19 130 -26q36 -3 43.5 -8.5t7.5 -32.5
q0 -31 -8.5 -37t-42.5 -4q-221 12 -397 -6q-46 -5 -56 0t-10 35q0 25 58 41q69 19 69 100v389q0 61 -19 85q-13 16 -50 28q-58 18 -58 57q0 27 24 34q8 2 50 3q36 1 45 16q6 11 6 54v159q0 190 156 311q149 115 366 115q90 0 90 -55z" />
    <glyph glyph-name="g" unicode="g" horiz-adv-x="999" 
d="M948 664q-10 -74 -52 -74q-15 0 -56 6q-18 2 -25 2q-14 -1 -14 -18q0 -5 2 -31t2 -53q0 -217 -281 -295q-166 -46 -166 -74q0 -29 123 -45l156 -21q131 -17 192 -49q97 -51 97 -157q0 -149 -171 -254q-166 -101 -386 -101q-136 0 -216.5 55t-80.5 146q0 138 192 264
q-88 36 -88 113q0 72 164 131q-236 63 -236 276q0 133 96.5 220.5t243.5 87.5q105 0 205 -48q66 -31 166 -28l88 2q34 1 42 -9t3 -46zM649 477q0 232 -200 232q-170 0 -170 -215q0 -213 188 -213q78 0 130 55t52 141zM807 -205q0 76 -184 103l-199 28q-28 5 -78 15
q-106 -85 -106 -211q0 -142 192 -142q149 0 266 71q109 65 109 136z" />
    <glyph glyph-name="h" unicode="h" horiz-adv-x="1124" 
d="M1106 23q0 -33 -45 -31q-251 9 -326 4q-37 -3 -44 -1q-19 5 -19 32q0 19 57 36q38 12 48 37q5 14 5 64v270q0 234 -198 234q-88 0 -165 -42q-73 -40 -73 -79v-381q0 -96 123 -109q47 -4 47 -30q0 -20 -7 -26t-40 -5q-159 6 -324 -8q-36 -3 -45 -1q-20 4 -20 31
q0 22 57 37q53 15 53 109v905q0 79 -16 115q-23 48 -92 71q-27 9 -27 33q0 17 41 35q55 25 140 73q55 31 75 31q37 0 37 -51q0 1 -3 -99.5t-3 -195.5v-342q0 -55 16 -55q-9 0 100.5 57.5t207.5 57.5q266 0 268 -295l2 -338q1 -101 125 -113q45 -4 45 -30z" />
    <glyph glyph-name="i" unicode="i" horiz-adv-x="598" 
d="M442 1157q0 -46 -34.5 -85.5t-75.5 -39.5q-47 0 -77 28t-30 73q0 44 36.5 82t78.5 38q102 0 102 -96zM553 25q-5 -29 -24 -33q-5 -1 -48 2q-149 10 -293 -4q-39 -4 -49 3t-10 32q0 23 53 38q58 17 58 111v262q0 79 -16 111q-22 44 -91 67q-31 11 -31 33q0 29 45 43
q84 26 149 69q52 36 64 36q40 0 39 -52q-4 -262 -4 -534q0 -65 19 -93q21 -31 80 -44q65 -15 59 -47z" />
    <glyph glyph-name="j" unicode="j" horiz-adv-x="530" 
d="M406 1184q0 -44 -37 -83.5t-78 -39.5q-103 0 -103 98q0 46 35 85.5t76 39.5q107 0 107 -100zM373 743q0 1 -3 -99.5t-3 -194.5v-500q0 -352 -297 -469q-17 -7 -32 -1t-15 21q0 28 57 68q71 49 99 118q32 81 32 242v508q0 81 -16 114q-21 42 -86 64q-27 10 -27 31
q0 33 39 45q84 26 150 70q53 35 65 35q37 0 37 -52z" />
    <glyph glyph-name="k" unicode="k" horiz-adv-x="1073" 
d="M1055 35q0 -35 -47 -37q-70 -1 -183 -10q-56 -11 -80 14q-158 170 -268 356q-9 16 -23 16q-17 0 -59 -30q-47 -26 -47 -74q0 -34 2 -98t32 -84q21 -14 97 -22q47 -6 47 -35q0 -23 -7.5 -28.5t-39.5 -2.5q-100 9 -338 -10q-60 -5 -65 15q-2 7 -2 20q0 31 61 47
q55 14 55 129v874q0 82 -16 114q-22 41 -92 64q-33 11 -33 31q0 29 47 45q75 25 143 69q55 36 68 36q41 0 41 -52q0 7 -1 -99q-1 -73 -1 -196l2 -626q0 -26 14 -26q15 0 46 26q83 65 204 170q24 25 24 40q0 27 -81 38q-35 4 -33 39q3 35 35 30q72 -10 210 -11q96 -1 191 -1
q31 -1 31 -37q0 -34 -49 -37q-77 -3 -145 -35q-95 -43 -203 -151q-8 -6 -8 -15q0 -14 34 -67q125 -190 236 -287q71 -61 133 -61q46 0 57 -6.5t11 -34.5z" />
    <glyph glyph-name="l" unicode="l" horiz-adv-x="584" 
d="M553 29q0 -40 -45 -35q-138 13 -342 -4q-41 -4 -50.5 2t-9.5 33q0 24 54.5 40.5t54.5 98.5v905q0 81 -23.5 119t-82.5 59q-31 11 -31 31q0 30 45 45q68 22 141 68q60 36 76 36q37 0 37 -51q0 4 -4 -100q-3 -99 -2 -195l4 -893q0 -61 30 -88.5t103 -36.5q45 -5 45 -34z
" />
    <glyph glyph-name="m" unicode="m" horiz-adv-x="1731" 
d="M1714 27q0 -33 -31 -31q-204 15 -380 0q-39 -3 -39 35q0 30 53 32q67 4 67 109v266q0 224 -182 224q-96 0 -176 -35q-73 -31 -74 -62l-4 -397q0 -62 15 -82q11 -14 49 -20q88 -15 88 -37q0 -19 -5 -26q-6 -10 -36 -9q-114 4 -332 -4q-31 -1 -40 5t-9 28q0 26 57 32
q62 7 62 113v272q0 110 -50 170q-44 54 -112 54q-100 0 -180 -40.5t-80 -86.5v-365q0 -62 32 -86q29 -22 105 -27q41 -2 41 -28q0 -29 -33 -29q-250 0 -362 -14q-38 -5 -49 0q-9 5 -9 24q0 25 74 43q45 12 45 117v307q0 117 -63 135q-53 15 -64.5 22t-11.5 23q0 18 104 76
q110 62 135 62q21 0 35.5 -60.5t22.5 -60.5q11 0 61 31q62 39 112 58q82 32 169 32q70 0 122 -30q36 -20 65 -55l24 -30l52 30q61 35 119 55q85 30 165 30q274 0 274 -301v-324q0 -57 27 -81q24 -20 94 -34q53 -10 53 -30z" />
    <glyph glyph-name="n" unicode="n" horiz-adv-x="1145" 
d="M1135 18q0 -31 -45 -28q-215 11 -326 4q-57 -4 -62 14q-2 6 -2 17q0 20 58 36q53 15 53 103v266q0 229 -199 229q-89 0 -165 -42q-72 -41 -72 -85v-366q0 -94 123 -105q47 -4 47 -30q0 -25 -13 -30q-6 -2 -34 -1q-157 6 -324 -16q-36 -5 -45 -3q-20 4 -20 31q0 24 57 41
q53 16 53 133v303q0 77 -20 98q-14 15 -93 42q-20 7 -20 28q0 20 41 35q56 21 123 67q56 38 72 38q27 0 36 -61.5t25 -61.5q-8 0 102 58.5t217 58.5q259 0 261 -295l2 -322q0 -62 32 -89q24 -20 93 -34q45 -9 45 -33z" />
    <glyph glyph-name="o" unicode="o" horiz-adv-x="1018" 
d="M938 403q0 -174 -129 -294.5t-320 -120.5t-302 106q-107 104 -107 275q0 177 135 298q131 117 313 117q195 0 304 -105q106 -102 106 -276zM762 342q0 157 -76 255q-74 95 -188 95q-106 0 -173 -74.5t-67 -181.5q0 -172 78 -268q72 -88 188 -88q110 0 174 73t64 189z" />
    <glyph glyph-name="p" unicode="p" horiz-adv-x="1055" 
d="M963 430q0 -187 -125.5 -317.5t-292.5 -130.5q-101 0 -195 36q-10 4 -10 -49v-301q0 -73 119 -94q55 -10 69.5 -18.5t14.5 -28.5q0 -34 -45 -31q-210 14 -369 -10q-33 -5 -41 0t-8 27q0 17 57 41q49 20 49 96v882q0 107 -59 134q-70 31 -70 51q0 22 41 33q53 13 109 46
q47 27 57 27q30 0 49 -55q28 -80 37 -80q2 0 86 47q92 51 180 51q143 0 236 -81q111 -95 111 -275zM793 350q0 163 -81 254q-66 76 -155 76q-69 0 -132 -48q-83 -62 -83 -173v-283q0 -27 76 -57q82 -33 178 -33q197 0 197 264z" />
    <glyph glyph-name="q" unicode="q" horiz-adv-x="1049" 
d="M1010 -473q0 -25 -23 -29q-4 0 -45 2q-75 5 -344 -4q-32 -1 -41.5 4.5t-9.5 26.5q0 26 51 31q137 12 137 112v322q0 84 -16 84q-9 0 -87 -43t-159 -43q-167 0 -277 101q-112 105 -112 269q0 205 137 328q125 113 303 113q99 0 185 -21.5t77 -21.5q16 0 46.5 35.5
t39.5 35.5t24.5 -12t14.5 -20q-23 -226 -22 -443l2 -649q0 -85 57 -121q62 -38 62 -57zM735 217v342q0 42 -71 93q-81 57 -179 57q-95 0 -158 -65q-73 -76 -73 -222q0 -143 85.5 -225t231.5 -82q66 0 115 31t49 71z" />
    <glyph glyph-name="r" unicode="r" horiz-adv-x="766" 
d="M715 709q0 -121 -70 -121q-11 0 -73 14t-91 14q-112 0 -112 -151v-295q0 -52 36 -74q21 -13 105 -35q45 -11 45 -34q0 -27 -7.5 -32.5t-37.5 -2.5q-220 23 -348 2q-40 -7 -51 0q-9 6 -9 35q0 27 55.5 43t55.5 96v321q0 63 -16.5 85t-90.5 59l-6 3q-20 10 -20 28
q0 20 41 34q69 24 126 68q47 37 60 37q36 0 43 -62q9 -79 21 -79q1 0 112 75q73 49 160 49q72 0 72 -77z" />
    <glyph glyph-name="s" unicode="s" horiz-adv-x="811" 
d="M707 215q0 -106 -81.5 -168.5t-222.5 -62.5q-94 0 -188 20q-81 18 -94 33q-8 14 -8 137q0 53 24 55q24 3 41 -26q75 -131 242 -131q141 0 141 98q0 43 -32 72q-35 33 -136 77q-146 65 -195 114q-53 52 -53 140q0 108 83 168q77 58 206 58q81 0 148 -13q72 -13 75 -32
q8 -56 33 -162q3 -13 -28 -21q-33 -7 -44 11q-79 129 -200 129q-137 0 -137 -88q0 -49 37 -78q33 -25 155 -78q128 -55 174 -99q60 -57 60 -153z" />
    <glyph glyph-name="t" unicode="t" horiz-adv-x="690" 
d="M633 94q0 -48 -88 -82q-78 -30 -158 -30q-217 0 -217 231v362q0 69 -11 84.5t-73 30.5q-16 4 -16 31q0 29 12 35q108 53 188 190q11 19 43 12q22 -7 23 -26l4 -125q0 -14 5 -20q7 -9 32 -9h223q19 0 0 -47q-23 -57 -68 -57h-151q-39 0 -48 -13q-7 -9 -7 -49v-327
q0 -124 22 -157q29 -42 135 -42q35 0 85 11.5t53 11.5q12 0 12 -15z" />
    <glyph glyph-name="u" unicode="u" horiz-adv-x="1087" 
d="M1020 84q0 -20 -94 -61l-80 -35q-13 0 -55.5 45t-59.5 45q-9 0 -103 -42t-165 -42q-150 0 -209 57q-64 61 -64 221v201q0 84 -17 118q-23 42 -93 64q-23 7 -23 25q0 20 39 35q74 29 147 59q51 21 74 21q35 0 35 -47l-3 -105.5t-3 -200.5v-120q0 -122 48 -167
q43 -40 157 -40q176 0 176 180v178q0 97 -17.5 124.5t-93.5 47.5q-22 9 -22 31q0 23 27 33q207 75 227 75q39 0 39 -45q0 1 -3 -100.5t-3 -196.5v-252q0 -71 104 -79q35 -3 35 -27z" />
    <glyph glyph-name="v" unicode="v" horiz-adv-x="1090" 
d="M1032 737q0 -19 -63 -39q-41 -12 -70 -82q-49 -118 -171 -346q-103 -193 -159 -282q-3 -7 -13 -6t-15 8q-212 305 -363 624q-32 68 -63 76q-58 23 -58 41q0 40 39 35q61 -8 181 -4q116 3 163 12q29 6 29 -22q0 -35 -41 -45q-78 -21 -78 -54q0 -15 10 -43
q34 -84 122 -242.5t100 -158.5q9 0 85 152q80 161 115 260q5 11 5 22q0 39 -48 64q-47 19 -47 36q0 35 31 29q40 -7 141 -12t131 -2q37 7 37 -21z" />
    <glyph glyph-name="w" unicode="w" horiz-adv-x="1567" 
d="M1509 735q0 -18 -69 -37q-45 -12 -76 -82q-180 -400 -322 -645q-3 -6 -15 -5q-11 1 -15 7q-24 36 -123 251q-91 198 -98 198q-11 0 -107 -191q-109 -213 -129 -243q-3 -7 -14 -6q-11 0 -17 8q-73 114 -336 624q-30 60 -67 76q-64 28 -64 41q0 39 43 35q193 -20 338 8
q33 6 33 -22q0 -39 -45 -50q-59 -14 -59 -44q0 -19 14 -56q36 -93 108 -236t84 -143q8 0 85 149t77 165q0 39 -26 84q-31 66 -72 79q-66 23 -66 45q0 40 45 33q154 -21 326 8q33 6 33 -20q0 -38 -49 -47q-58 -11 -58 -59q0 -23 13 -54q154 -377 178 -377q9 0 80 147
q76 157 106 253q2 5 2 11q0 43 -67 67q-52 17 -52 38q0 35 33 27q45 -10 162 -15q110 -4 145 1q41 5 41 -23z" />
    <glyph glyph-name="x" unicode="x" horiz-adv-x="1106" 
d="M1040 31q0 -24 -13 -30q-7 -3 -38 -3q-224 0 -272 -8q-11 -2 -20 -2q-39 0 -39 27q0 10 8 22q27 39 4 76q-104 166 -127 166q-30 0 -156 -185q-6 -6 -6 -14q0 -29 53 -41q40 -9 33 -37q-5 -20 -24 -22t-93 10q-51 8 -213 8q-31 0 -38 3q-13 6 -13 30q0 21 12.5 28t61.5 7
q56 0 135 75q59 58 122 131q66 78 66 93q0 24 -194 256q-57 68 -109 71q-42 3 -53 8.5t-12 26.5q-2 27 7.5 34t43.5 1q84 -16 233 10q66 18 68 -14q0 -7 -5 -64q-5 -41 7 -63q20 -38 57.5 -87.5t44.5 -49.5q10 0 52.5 50t64.5 87q18 30 18 55q0 27 -24 27q-29 0 -29 30
q0 27 52 21q42 -5 83 -5q36 0 96 6q51 5 74 3q50 -4 50 -33q0 -20 -9.5 -25.5t-50.5 -11.5q-82 -11 -147 -84q-170 -189 -170 -202q0 -18 174 -226q90 -108 170 -120q21 -4 43 -7q22 -6 22 -28z" />
    <glyph glyph-name="y" unicode="y" horiz-adv-x="1100" 
d="M1036 748q0 -27 -43.5 -47t-66.5 -76q-102 -244 -264 -559q-37 -67 -102.5 -197.5t-199.5 -341.5q-44 -70 -120 -57q-66 10 -110.5 37.5t-39.5 52.5q9 42 60 47q88 8 115 16q33 11 57 41q51 66 125 197q69 122 69 137q0 10 -125 241q-169 312 -205 379q-33 64 -71 74
q-64 17 -64 43q0 38 41 35q211 -16 387 12q31 5 31 -20q0 -35 -49 -47q-74 -18 -74 -65q0 -9 4 -19q49 -115 132 -277q78 -153 85 -153q9 0 66 125q66 146 123 307q1 4 1 9q0 48 -48 67q-56 21 -56 36q0 34 35 29q143 -22 266 -4q29 4 35 0t6 -22z" />
    <glyph glyph-name="z" unicode="z" horiz-adv-x="967" 
d="M895 158q-13 -14 -94 -224q-10 -25 -43 -18q-30 6 -23 41q6 27 -49 35q-105 14 -565 14q-27 0 -27 38q0 8 4 11q219 223 539 557q12 14 12 20q0 7 -20 7q-11 0 -273 -6q-96 -2 -143 -55q-49 -56 -74 -48q-31 11 -16 35q19 30 98 236q10 24 35 24q31 0 41 -22
q11 -25 86 -29q150 -7 448 -10q13 0 24 -15.5t11 -27.5q0 -4 -2 -6q-238 -242 -540 -547q-14 -14 -14 -21q1 -10 32 -10q274 0 332 2q87 3 139 28t55 25q7 0 17 -4q29 -9 10 -30z" />
    <glyph glyph-name="braceleft" unicode="{" horiz-adv-x="903" 
d="M831 -334q-7 -28 -53 -20q-473 84 -473 352q0 54 37 174q41 134 41 176q0 107 -89 152q-57 29 -185 41q-19 1 -19 32q0 32 19 33q128 12 185 40q89 45 89 153q0 42 -41 176q-37 120 -37 174q0 268 473 352q46 8 53 -20q12 -42 -20 -49q-191 -46 -262.5 -99t-71.5 -151
q0 -42 35 -162q37 -127 37 -201q0 -101 -57 -160q-47 -50 -150 -86q103 -35 150 -85q57 -60 57 -160q0 -74 -37 -201q-35 -120 -35 -162q0 -98 71.5 -151t262.5 -99q32 -7 20 -49z" />
    <glyph glyph-name="bar" unicode="|" horiz-adv-x="545" 
d="M322 -330q0 -24 -50 -24q-49 0 -49 24v1882q3 25 51 25q20 0 32 -2q16 -4 16 -23v-1882z" />
    <glyph glyph-name="braceright" unicode="}" horiz-adv-x="903" 
d="M813 573q0 -31 -18 -32q-129 -12 -185 -41q-90 -45 -90 -152q0 -42 41 -176q37 -120 37 -174q0 -268 -473 -352q-46 -8 -53 20q-12 42 20 49q191 46 262.5 99t71.5 151q0 42 -35 162q-37 127 -37 201q0 100 57 160q47 50 150 85q-103 36 -150 86q-57 59 -57 160
q0 74 37 201q35 120 35 162q0 98 -71.5 151t-262.5 99q-32 7 -20 49q7 28 53 20q473 -84 473 -352q0 -54 -37 -174q-41 -134 -41 -176q0 -108 90 -153q56 -28 185 -40q18 -1 18 -33z" />
    <glyph glyph-name="asciitilde" unicode="~" 
d="M838 647q-80 -106 -107 -137q-51 -59 -104 -59q-29 0 -148 34.5t-131 34.5q-25 0 -53 -18l-94 -82q-14 -12 -45 14q-25 20 -11 31q65 91 105 137q53 62 104 62q29 0 149 -36t130 -36q29 0 53 20q55 46 96 82q12 11 43 -16q26 -17 13 -31z" />
    <glyph glyph-name="Adieresis" unicode="&#xc4;" horiz-adv-x="1567" 
d="M1501 20q-6 -27 -13 -32q-6 -4 -28 2q-143 26 -418 6q-52 -4 -57 20q-5 28 33 43q108 44 108 82q0 15 -12 43q-74 177 -123 285q-71 -4 -250 -4q-148 0 -252 8q-35 -86 -98 -240q-14 -35 -14 -63q0 -56 61 -82q94 -40 92 -61q-2 -34 -63 -27q-188 20 -348 -12
q-42 -9 -47 30q-4 26 65 56q74 31 125 143q195 423 252 556q138 319 195 521q8 31 79 58q17 6 43 -58q216 -520 484 -1112q43 -94 145 -125q46 -13 41 -37zM958 547q-66 150 -206 465q-8 17 -18 17t-17 -17l-191 -461q107 -8 240 -8q82 0 192 4zM1050 1557q0 -55 -31.5 -92
t-78.5 -37q-97 0 -97 111q0 51 34 86.5t81 35.5q92 0 92 -104zM688 1557q0 -55 -32.5 -92t-78.5 -37q-96 0 -96 111q0 51 34 86.5t80 35.5q93 0 93 -104z" />
    <glyph glyph-name="Aring" unicode="&#xc5;" horiz-adv-x="1567" 
d="M1501 20q-6 -27 -13 -32q-6 -4 -28 2q-143 26 -418 6q-52 -4 -57 20q-5 28 33 43q108 44 108 82q0 15 -12 43q-74 177 -123 285q-71 -4 -250 -4q-148 0 -252 8q-35 -86 -98 -240q-14 -35 -14 -63q0 -56 61 -82q94 -40 92 -61q-2 -34 -63 -27q-188 20 -348 -12
q-42 -9 -47 30q-4 26 65 56q74 31 125 143q195 423 252 556q138 319 195 521q8 31 79 58q17 6 43 -58q216 -520 484 -1112q43 -94 145 -125q46 -13 41 -37zM958 547q-66 150 -206 465q-8 17 -18 17t-17 -17l-191 -461q107 -8 240 -8q82 0 192 4zM966 1633q0 -85 -59 -144
t-144 -59q-84 0 -143 59t-59 144t59 146t143 61q85 0 144 -61t59 -146zM884 1633q0 56 -34.5 93.5t-86.5 37.5q-51 0 -85.5 -37.5t-34.5 -93.5q0 -57 34.5 -93t85.5 -36q52 0 86.5 36t34.5 93z" />
    <glyph glyph-name="Ccedilla" unicode="&#xc7;" horiz-adv-x="1530" 
d="M1393 326q-13 -133 -43 -215q-20 -53 -154 -95q-146 -45 -336 -45q-314 0 -523 187q-212 190 -212 487q0 303 219 504q211 194 510 194q212 0 356 -51q128 -45 133 -84q11 -76 11 -247q0 -28 -51 -33q-39 -4 -48 24q-53 171 -141.5 237t-265.5 66q-222 0 -362 -147
q-152 -160 -152 -438q0 -276 160 -446q156 -167 399 -167q158 0 249 68q87 65 142 213q16 43 72 31q40 -9 37 -43zM1051 -233q0 -154 -385 -164q-11 -1 -15 21q-5 23 5 24q235 29 235 108q0 66 -168 99q-29 5 -10 32q15 21 100 152h90q-41 -58 -67 -102q-12 -21 14 -27
q201 -48 201 -143z" />
    <glyph glyph-name="Eacute" unicode="&#xc9;" horiz-adv-x="1266" 
d="M1147 250q-28 -119 -37 -240q-1 -19 -61 -16q-156 8 -398 8q-266 0 -458 -10q-43 -2 -43 35q0 26 43 30q60 7 77 23q21 20 21 84v921q0 93 -17 117.5t-94 48.5q-41 13 -30 49q5 19 16 21q10 3 53 -4q64 -10 334 -10q269 0 463 12q65 4 65 -9q0 -5 -2 -10
q-21 -98 -18 -225q1 -31 -29 -31q-28 0 -39 27q-28 70 -49 95q-32 38 -92 48q-48 9 -338 9q-33 0 -42 -11q-5 -6 -5 -30v-418q0 -25 29 -25q92 2 264 13q30 3 44 29q11 20 23 83q9 43 47 31q34 -6 29 -31q-28 -136 -18 -354q1 -24 -33 -29q-30 -4 -35 33q-10 77 -25.5 101.5
t-58.5 29.5q-82 10 -248 10q-18 0 -18 -14v-436q0 -93 108 -114q27 -5 187 -5q249 0 311 174q15 41 49 27q32 -8 25 -37zM878 1751q0 -19 -22 -53q-119 -145 -256 -264q-21 -18 -54 2q-23 14 -12 28q59 79 109 200q47 113 59 126q27 29 49 29q40 0 85 -26q42 -25 42 -42z
" />
    <glyph glyph-name="Ntilde" unicode="&#xd1;" horiz-adv-x="1743" 
d="M1649 1296q0 -25 -54 -41q-120 -34 -120 -139v-719q0 -227 6 -366q2 -53 -25 -60q-45 -11 -76 47q-50 95 -392 468q-286 311 -554 581q-9 9 -18 5q-10 -5 -10 -23v-820q0 -132 133 -157q55 -11 55 -39q0 -38 -62 -35q-238 10 -370 0q-43 -3 -43 35q0 21 43 30
q77 18 103 49t26 105v885q0 58 -24 89q-23 28 -89 58q-49 23 -47 47q3 27 45 21q130 -18 225 -8q49 5 88 -37l838 -893q17 -19 23 -19q8 0 8 27v723q0 127 -133 150q-47 8 -47 28q0 42 43 37q164 -18 366 4q35 4 45 1q17 -5 17 -34zM1219 1657q-80 -106 -107 -138
q-51 -59 -104 -59q-29 0 -148 35t-131 35q-25 0 -53 -19l-94 -82q-14 -12 -45 15q-25 20 -11 30q65 91 105 137q53 62 104 62q29 0 149 -36t130 -36q29 0 53 21q55 46 96 82q12 10 43 -17q26 -17 13 -30z" />
    <glyph glyph-name="Odieresis" unicode="&#xd6;" horiz-adv-x="1694" 
d="M1569 659q0 -289 -214 -490q-210 -198 -505 -198q-310 0 -515 186q-210 192 -210 496q0 294 213 494q210 196 512 196q308 0 512 -191q207 -194 207 -493zM1366 625q0 291 -159 460q-153 162 -404 162q-208 0 -341.5 -153.5t-133.5 -399.5q0 -295 155 -464
q151 -164 410 -164q209 0 341 154t132 405zM1118 1557q0 -55 -31.5 -92t-78.5 -37q-97 0 -97 111q0 51 34 86.5t81 35.5q92 0 92 -104zM756 1557q0 -55 -32.5 -92t-78.5 -37q-96 0 -96 111q0 51 34 86.5t80 35.5q93 0 93 -104z" />
    <glyph glyph-name="Udieresis" unicode="&#xdc;" horiz-adv-x="1673" 
d="M1589 1282q0 -20 -45 -31q-78 -18 -99 -36q-28 -25 -28 -93v-573q0 -275 -143 -424q-147 -154 -426 -154q-590 0 -590 555v600q0 95 -111 115q-38 7 -46.5 13t-8.5 24q0 31 15 36q7 3 47 1q269 -14 411 0q30 3 36.5 -3t6.5 -34q0 -21 -43 -31q-84 -18 -97 -26
q-32 -20 -32 -82v-578q0 -255 106 -374t341 -119q403 0 403 464v576q0 68 -35 99q-28 26 -98 38q-55 10 -55 37q0 31 16 36q6 2 47 1q278 -11 383 0q40 4 44 -16q1 -7 1 -21zM1132 1577q0 -55 -31.5 -92t-78.5 -37q-97 0 -97 111q0 51 34 86.5t81 35.5q92 0 92 -104z
M770 1577q0 -55 -32.5 -92t-78.5 -37q-96 0 -96 111q0 51 34 86.5t80 35.5q93 0 93 -104z" />
    <glyph glyph-name="aacute" unicode="&#xe1;" horiz-adv-x="918" 
d="M881 96q0 -21 -76.5 -63.5t-122.5 -42.5q-39 0 -69 38t-42 38q-9 0 -95 -41t-173 -41q-82 0 -137 48q-60 53 -60 144q0 173 396 248q68 13 69 55l2 64q6 164 -145 164q-43 0 -81.5 -77t-110.5 -83q-82 -8 -82 69q0 48 122 112q128 67 246 67q203 0 201 -193l-4 -412
q-1 -65 55 -65q11 0 42 5t36 5q29 0 29 -39zM573 324q1 25 -11.5 33t-39.5 3q-241 -43 -241 -157q0 -115 125 -115q50 0 103 19q62 22 62 53zM698 1239q0 -19 -22 -53q-119 -145 -256 -264q-21 -18 -54 2q-23 14 -12 28q59 79 109 200q47 113 59 126q27 29 49 29
q40 0 85 -26q42 -25 42 -42z" />
    <glyph glyph-name="agrave" unicode="&#xe0;" horiz-adv-x="918" 
d="M881 96q0 -21 -76.5 -63.5t-122.5 -42.5q-39 0 -69 38t-42 38q-9 0 -95 -41t-173 -41q-82 0 -137 48q-60 53 -60 144q0 173 396 248q68 13 69 55l2 64q6 164 -145 164q-43 0 -81.5 -77t-110.5 -83q-82 -8 -82 69q0 48 122 112q128 67 246 67q203 0 201 -193l-4 -412
q-1 -65 55 -65q11 0 42 5t36 5q29 0 29 -39zM573 324q1 25 -11.5 33t-39.5 3q-241 -43 -241 -157q0 -115 125 -115q50 0 103 19q62 22 62 53zM584 952q11 -14 -12 -28q-33 -20 -54 -2q-137 119 -256 264q-22 34 -22 53q0 17 43.5 42.5t83.5 25.5q22 0 49 -29q12 -13 59 -126
q50 -121 109 -200z" />
    <glyph glyph-name="acircumflex" unicode="&#xe2;" horiz-adv-x="918" 
d="M881 96q0 -21 -76.5 -63.5t-122.5 -42.5q-39 0 -69 38t-42 38q-9 0 -95 -41t-173 -41q-82 0 -137 48q-60 53 -60 144q0 173 396 248q68 13 69 55l2 64q6 164 -145 164q-43 0 -81.5 -77t-110.5 -83q-82 -8 -82 69q0 48 122 112q128 67 246 67q203 0 201 -193l-4 -412
q-1 -65 55 -65q11 0 42 5t36 5q29 0 29 -39zM573 324q1 25 -11.5 33t-39.5 3q-241 -43 -241 -157q0 -115 125 -115q50 0 103 19q62 22 62 53zM729 952q11 -14 -12 -28q-35 -21 -54 -6q-119 94 -205 192q-69 -80 -204 -192q-19 -16 -54 6q-23 14 -12 28q154 195 221 326
q17 25 49 25q34 0 50 -25q56 -113 221 -326z" />
    <glyph glyph-name="adieresis" unicode="&#xe4;" horiz-adv-x="918" 
d="M881 96q0 -21 -76.5 -63.5t-122.5 -42.5q-39 0 -69 38t-42 38q-9 0 -95 -41t-173 -41q-82 0 -137 48q-60 53 -60 144q0 173 396 248q68 13 69 55l2 64q6 164 -145 164q-43 0 -81.5 -77t-110.5 -83q-82 -8 -82 69q0 48 122 112q128 67 246 67q203 0 201 -193l-4 -412
q-1 -65 55 -65q11 0 42 5t36 5q29 0 29 -39zM573 324q1 25 -11.5 33t-39.5 3q-241 -43 -241 -157q0 -115 125 -115q50 0 103 19q62 22 62 53zM743 1065q0 -55 -31.5 -92t-78.5 -37q-97 0 -97 111q0 51 34 86.5t81 35.5q92 0 92 -104zM381 1065q0 -55 -32.5 -92t-78.5 -37
q-96 0 -96 111q0 51 34 86.5t80 35.5q93 0 93 -104z" />
    <glyph glyph-name="atilde" unicode="&#xe3;" horiz-adv-x="918" 
d="M881 96q0 -21 -76.5 -63.5t-122.5 -42.5q-39 0 -69 38t-42 38q-9 0 -95 -41t-173 -41q-82 0 -137 48q-60 53 -60 144q0 173 396 248q68 13 69 55l2 64q6 164 -145 164q-43 0 -81.5 -77t-110.5 -83q-82 -8 -82 69q0 48 122 112q128 67 246 67q203 0 201 -193l-4 -412
q-1 -65 55 -65q11 0 42 5t36 5q29 0 29 -39zM573 324q1 25 -11.5 33t-39.5 3q-241 -43 -241 -157q0 -115 125 -115q50 0 103 19q62 22 62 53zM818 1176q-80 -106 -107 -138q-51 -59 -104 -59q-29 0 -148 35t-131 35q-25 0 -53 -19l-94 -82q-14 -12 -45 15q-25 20 -11 30
q65 91 105 137q53 62 104 62q29 0 149 -36t130 -36q29 0 53 21q55 46 96 82q12 10 43 -17q26 -17 13 -30z" />
    <glyph glyph-name="aring" unicode="&#xe5;" horiz-adv-x="918" 
d="M881 96q0 -21 -76.5 -63.5t-122.5 -42.5q-39 0 -69 38t-42 38q-9 0 -95 -41t-173 -41q-82 0 -137 48q-60 53 -60 144q0 173 396 248q68 13 69 55l2 64q6 164 -145 164q-43 0 -81.5 -77t-110.5 -83q-82 -8 -82 69q0 48 122 112q128 67 246 67q203 0 201 -193l-4 -412
q-1 -65 55 -65q11 0 42 5t36 5q29 0 29 -39zM573 324q1 25 -11.5 33t-39.5 3q-241 -43 -241 -157q0 -115 125 -115q50 0 103 19q62 22 62 53zM672 1096q0 -85 -59 -144t-144 -59q-84 0 -143 59t-59 144t59 146t143 61q85 0 144 -61t59 -146zM590 1096q0 56 -34.5 93.5
t-86.5 37.5q-51 0 -85.5 -37.5t-34.5 -93.5q0 -57 34.5 -93t85.5 -36q52 0 86.5 36t34.5 93z" />
    <glyph glyph-name="ccedilla" unicode="&#xe7;" horiz-adv-x="874" 
d="M795 129q0 -37 -103 -90q-112 -57 -221 -57q-170 0 -278 96q-113 102 -113 276q0 187 130 311q127 121 312 121q112 0 195 -32q76 -30 76 -64q0 -23 -37.5 -70t-61.5 -47q-15 0 -69 43q-101 80 -158 80q-90 0 -148 -68q-61 -74 -61 -204q0 -157 88 -251q80 -85 193 -85
q112 0 211 62q9 6 24 6q21 0 21 -27zM680 -245q0 -154 -385 -164q-11 -1 -15 21q-5 23 5 24q235 29 235 108q0 66 -168 99q-29 5 -10 32q15 21 100 152h90q-41 -58 -67 -102q-12 -21 14 -27q201 -48 201 -143z" />
    <glyph glyph-name="eacute" unicode="&#xe9;" horiz-adv-x="891" 
d="M827 168q0 -43 -116 -107q-132 -71 -271 -71q-151 0 -254 99q-110 105 -110 280q0 198 123 318q115 112 282 112q99 0 185 -63q77 -56 102 -128q9 -25 27 -28q26 -5 26 -35q0 -41 -98 -70l-461 -137q45 -238 244 -238q115 0 262 84q22 13 43 13q16 0 16 -29zM590 569
q0 55 -44.5 96.5t-109.5 41.5q-184 0 -184 -265v-24l272 82q66 19 66 69zM678 1239q0 -19 -22 -53q-119 -145 -256 -264q-21 -18 -54 2q-23 14 -12 28q59 79 109 200q47 113 59 126q27 29 49 29q40 0 85 -26q42 -25 42 -42z" />
    <glyph glyph-name="egrave" unicode="&#xe8;" horiz-adv-x="891" 
d="M827 168q0 -43 -116 -107q-132 -71 -271 -71q-151 0 -254 99q-110 105 -110 280q0 198 123 318q115 112 282 112q99 0 185 -63q77 -56 102 -128q9 -25 27 -28q26 -5 26 -35q0 -41 -98 -70l-461 -137q45 -238 244 -238q115 0 262 84q22 13 43 13q16 0 16 -29zM590 569
q0 55 -44.5 96.5t-109.5 41.5q-184 0 -184 -265v-24l272 82q66 19 66 69zM522 952q11 -14 -12 -28q-33 -20 -54 -2q-137 119 -256 264q-22 34 -22 53q0 17 43.5 42.5t83.5 25.5q22 0 49 -29q12 -13 59 -126q50 -121 109 -200z" />
    <glyph glyph-name="ecircumflex" unicode="&#xea;" horiz-adv-x="891" 
d="M827 168q0 -43 -116 -107q-132 -71 -271 -71q-151 0 -254 99q-110 105 -110 280q0 198 123 318q115 112 282 112q99 0 185 -63q77 -56 102 -128q9 -25 27 -28q26 -5 26 -35q0 -41 -98 -70l-461 -137q45 -238 244 -238q115 0 262 84q22 13 43 13q16 0 16 -29zM590 569
q0 55 -44.5 96.5t-109.5 41.5q-184 0 -184 -265v-24l272 82q66 19 66 69zM713 952q11 -14 -12 -28q-35 -21 -54 -6q-119 94 -205 192q-69 -80 -204 -192q-19 -16 -54 6q-23 14 -12 28q154 195 221 326q17 25 49 25q34 0 50 -25q56 -113 221 -326z" />
    <glyph glyph-name="edieresis" unicode="&#xeb;" horiz-adv-x="891" 
d="M827 168q0 -43 -116 -107q-132 -71 -271 -71q-151 0 -254 99q-110 105 -110 280q0 198 123 318q115 112 282 112q99 0 185 -63q77 -56 102 -128q9 -25 27 -28q26 -5 26 -35q0 -41 -98 -70l-461 -137q45 -238 244 -238q115 0 262 84q22 13 43 13q16 0 16 -29zM590 569
q0 55 -44.5 96.5t-109.5 41.5q-184 0 -184 -265v-24l272 82q66 19 66 69zM733 1065q0 -55 -31.5 -92t-78.5 -37q-97 0 -97 111q0 51 34 86.5t81 35.5q92 0 92 -104zM371 1065q0 -55 -32.5 -92t-78.5 -37q-96 0 -96 111q0 51 34 86.5t80 35.5q93 0 93 -104z" />
    <glyph glyph-name="iacute" unicode="&#xed;" horiz-adv-x="598" 
d="M553 25q-5 -29 -24 -33q-5 -1 -48 2q-149 10 -293 -4q-39 -4 -49 3t-10 32q0 23 53 38q58 17 58 111v262q0 79 -16 111q-22 44 -91 67q-31 11 -31 33q0 29 45 43q84 26 149 69q52 36 64 36q40 0 39 -52q-4 -262 -4 -534q0 -65 19 -93q21 -31 80 -44q65 -15 59 -47z
M555 1239q0 -19 -22 -53q-119 -145 -256 -264q-21 -18 -54 2q-23 14 -12 28q59 79 109 200q47 113 59 126q27 29 49 29q40 0 85 -26q42 -25 42 -42z" />
    <glyph glyph-name="igrave" unicode="&#xec;" horiz-adv-x="598" 
d="M553 25q-5 -29 -24 -33q-5 -1 -48 2q-149 10 -293 -4q-39 -4 -49 3t-10 32q0 23 53 38q58 17 58 111v262q0 79 -16 111q-22 44 -91 67q-31 11 -31 33q0 29 45 43q84 26 149 69q52 36 64 36q40 0 39 -52q-4 -262 -4 -534q0 -65 19 -93q21 -31 80 -44q65 -15 59 -47z
M410 952q11 -14 -12 -28q-33 -20 -54 -2q-137 119 -256 264q-22 34 -22 53q0 17 43.5 42.5t83.5 25.5q22 0 49 -29q12 -13 59 -126q50 -121 109 -200z" />
    <glyph glyph-name="icircumflex" unicode="&#xee;" horiz-adv-x="598" 
d="M553 25q-5 -29 -24 -33q-5 -1 -48 2q-149 10 -293 -4q-39 -4 -49 3t-10 32q0 23 53 38q58 17 58 111v262q0 79 -16 111q-22 44 -91 67q-31 11 -31 33q0 29 45 43q84 26 149 69q52 36 64 36q40 0 39 -52q-4 -262 -4 -534q0 -65 19 -93q21 -31 80 -44q65 -15 59 -47z
M582 952q11 -14 -12 -28q-35 -21 -54 -6q-119 94 -205 192q-69 -80 -204 -192q-19 -16 -54 6q-23 14 -12 28q154 195 221 326q17 25 49 25q34 0 50 -25q56 -113 221 -326z" />
    <glyph glyph-name="idieresis" unicode="&#xef;" horiz-adv-x="598" 
d="M553 25q-5 -29 -24 -33q-5 -1 -48 2q-149 10 -293 -4q-39 -4 -49 3t-10 32q0 23 53 38q58 17 58 111v262q0 79 -16 111q-22 44 -91 67q-31 11 -31 33q0 29 45 43q84 26 149 69q52 36 64 36q40 0 39 -52q-4 -262 -4 -534q0 -65 19 -93q21 -31 80 -44q65 -15 59 -47z
M602 1065q0 -55 -31.5 -92t-78.5 -37q-97 0 -97 111q0 51 34 86.5t81 35.5q92 0 92 -104zM240 1065q0 -55 -32.5 -92t-78.5 -37q-96 0 -96 111q0 51 34 86.5t80 35.5q93 0 93 -104z" />
    <glyph glyph-name="ntilde" unicode="&#xf1;" horiz-adv-x="1145" 
d="M1135 18q0 -31 -45 -28q-215 11 -326 4q-57 -4 -62 14q-2 6 -2 17q0 20 58 36q53 15 53 103v266q0 229 -199 229q-89 0 -165 -42q-72 -41 -72 -85v-366q0 -94 123 -105q47 -4 47 -30q0 -25 -13 -30q-6 -2 -34 -1q-157 6 -324 -16q-36 -5 -45 -3q-20 4 -20 31q0 24 57 41
q53 16 53 133v303q0 77 -20 98q-14 15 -93 42q-20 7 -20 28q0 20 41 35q56 21 123 67q56 38 72 38q27 0 36 -61.5t25 -61.5q-8 0 102 58.5t217 58.5q259 0 261 -295l2 -322q0 -62 32 -89q24 -20 93 -34q45 -9 45 -33zM936 1176q-80 -106 -107 -138q-51 -59 -104 -59
q-29 0 -148 35t-131 35q-25 0 -53 -19l-94 -82q-14 -12 -45 15q-25 20 -11 30q65 91 105 137q53 62 104 62q29 0 149 -36t130 -36q29 0 53 21q55 46 96 82q12 10 43 -17q26 -17 13 -30z" />
    <glyph glyph-name="oacute" unicode="&#xf3;" horiz-adv-x="1018" 
d="M938 403q0 -174 -129 -294.5t-320 -120.5t-302 106q-107 104 -107 275q0 177 135 298q131 117 313 117q195 0 304 -105q106 -102 106 -276zM762 342q0 157 -76 255q-74 95 -188 95q-106 0 -173 -74.5t-67 -181.5q0 -172 78 -268q72 -88 188 -88q110 0 174 73t64 189z
M739 1239q0 -19 -22 -53q-119 -145 -256 -264q-21 -18 -54 2q-23 14 -12 28q59 79 109 200q47 113 59 126q27 29 49 29q40 0 85 -26q42 -25 42 -42z" />
    <glyph glyph-name="ograve" unicode="&#xf2;" horiz-adv-x="1018" 
d="M938 403q0 -174 -129 -294.5t-320 -120.5t-302 106q-107 104 -107 275q0 177 135 298q131 117 313 117q195 0 304 -105q106 -102 106 -276zM762 342q0 157 -76 255q-74 95 -188 95q-106 0 -173 -74.5t-67 -181.5q0 -172 78 -268q72 -88 188 -88q110 0 174 73t64 189z
M588 952q11 -14 -12 -28q-33 -20 -54 -2q-137 119 -256 264q-22 34 -22 53q0 17 43.5 42.5t83.5 25.5q22 0 49 -29q12 -13 59 -126q50 -121 109 -200z" />
    <glyph glyph-name="ocircumflex" unicode="&#xf4;" horiz-adv-x="1018" 
d="M938 403q0 -174 -129 -294.5t-320 -120.5t-302 106q-107 104 -107 275q0 177 135 298q131 117 313 117q195 0 304 -105q106 -102 106 -276zM762 342q0 157 -76 255q-74 95 -188 95q-106 0 -173 -74.5t-67 -181.5q0 -172 78 -268q72 -88 188 -88q110 0 174 73t64 189z
M764 952q11 -14 -12 -28q-35 -21 -54 -6q-119 94 -205 192q-69 -80 -204 -192q-19 -16 -54 6q-23 14 -12 28q154 195 221 326q17 25 49 25q34 0 50 -25q56 -113 221 -326z" />
    <glyph glyph-name="odieresis" unicode="&#xf6;" horiz-adv-x="1018" 
d="M938 403q0 -174 -129 -294.5t-320 -120.5t-302 106q-107 104 -107 275q0 177 135 298q131 117 313 117q195 0 304 -105q106 -102 106 -276zM762 342q0 157 -76 255q-74 95 -188 95q-106 0 -173 -74.5t-67 -181.5q0 -172 78 -268q72 -88 188 -88q110 0 174 73t64 189z
M788 1065q0 -55 -31.5 -92t-78.5 -37q-97 0 -97 111q0 51 34 86.5t81 35.5q92 0 92 -104zM426 1065q0 -55 -32.5 -92t-78.5 -37q-96 0 -96 111q0 51 34 86.5t80 35.5q93 0 93 -104z" />
    <glyph glyph-name="otilde" unicode="&#xf5;" horiz-adv-x="1018" 
d="M938 403q0 -174 -129 -294.5t-320 -120.5t-302 106q-107 104 -107 275q0 177 135 298q131 117 313 117q195 0 304 -105q106 -102 106 -276zM762 342q0 157 -76 255q-74 95 -188 95q-106 0 -173 -74.5t-67 -181.5q0 -172 78 -268q72 -88 188 -88q110 0 174 73t64 189z
M861 1166q-80 -106 -107 -138q-51 -59 -104 -59q-29 0 -148 35t-131 35q-25 0 -53 -19l-94 -82q-14 -12 -45 15q-25 20 -11 30q65 91 105 137q53 62 104 62q29 0 149 -36t130 -36q29 0 53 21q55 46 96 82q12 10 43 -17q26 -17 13 -30z" />
    <glyph glyph-name="uacute" unicode="&#xfa;" horiz-adv-x="1087" 
d="M1020 84q0 -20 -94 -61l-80 -35q-13 0 -55.5 45t-59.5 45q-9 0 -103 -42t-165 -42q-150 0 -209 57q-64 61 -64 221v201q0 84 -17 118q-23 42 -93 64q-23 7 -23 25q0 20 39 35q74 29 147 59q51 21 74 21q35 0 35 -47l-3 -105.5t-3 -200.5v-120q0 -122 48 -167
q43 -40 157 -40q176 0 176 180v178q0 97 -17.5 124.5t-93.5 47.5q-22 9 -22 31q0 23 27 33q207 75 227 75q39 0 39 -45q0 1 -3 -100.5t-3 -196.5v-252q0 -71 104 -79q35 -3 35 -27zM790 1239q0 -19 -22 -53q-119 -145 -256 -264q-21 -18 -54 2q-23 14 -12 28q59 79 109 200
q47 113 59 126q27 29 49 29q40 0 85 -26q42 -25 42 -42z" />
    <glyph glyph-name="ugrave" unicode="&#xf9;" horiz-adv-x="1087" 
d="M1020 84q0 -20 -94 -61l-80 -35q-13 0 -55.5 45t-59.5 45q-9 0 -103 -42t-165 -42q-150 0 -209 57q-64 61 -64 221v201q0 84 -17 118q-23 42 -93 64q-23 7 -23 25q0 20 39 35q74 29 147 59q51 21 74 21q35 0 35 -47l-3 -105.5t-3 -200.5v-120q0 -122 48 -167
q43 -40 157 -40q176 0 176 180v178q0 97 -17.5 124.5t-93.5 47.5q-22 9 -22 31q0 23 27 33q207 75 227 75q39 0 39 -45q0 1 -3 -100.5t-3 -196.5v-252q0 -71 104 -79q35 -3 35 -27zM610 952q11 -14 -12 -28q-33 -20 -54 -2q-137 119 -256 264q-22 34 -22 53q0 17 43.5 42.5
t83.5 25.5q22 0 49 -29q12 -13 59 -126q50 -121 109 -200z" />
    <glyph glyph-name="ucircumflex" unicode="&#xfb;" horiz-adv-x="1087" 
d="M1020 84q0 -20 -94 -61l-80 -35q-13 0 -55.5 45t-59.5 45q-9 0 -103 -42t-165 -42q-150 0 -209 57q-64 61 -64 221v201q0 84 -17 118q-23 42 -93 64q-23 7 -23 25q0 20 39 35q74 29 147 59q51 21 74 21q35 0 35 -47l-3 -105.5t-3 -200.5v-120q0 -122 48 -167
q43 -40 157 -40q176 0 176 180v178q0 97 -17.5 124.5t-93.5 47.5q-22 9 -22 31q0 23 27 33q207 75 227 75q39 0 39 -45q0 1 -3 -100.5t-3 -196.5v-252q0 -71 104 -79q35 -3 35 -27zM787 952q11 -14 -12 -28q-35 -21 -54 -6q-119 94 -205 192q-69 -80 -204 -192
q-19 -16 -54 6q-23 14 -12 28q154 195 221 326q17 25 49 25q34 0 50 -25q56 -113 221 -326z" />
    <glyph glyph-name="udieresis" unicode="&#xfc;" horiz-adv-x="1087" 
d="M1020 84q0 -20 -94 -61l-80 -35q-13 0 -55.5 45t-59.5 45q-9 0 -103 -42t-165 -42q-150 0 -209 57q-64 61 -64 221v201q0 84 -17 118q-23 42 -93 64q-23 7 -23 25q0 20 39 35q74 29 147 59q51 21 74 21q35 0 35 -47l-3 -105.5t-3 -200.5v-120q0 -122 48 -167
q43 -40 157 -40q176 0 176 180v178q0 97 -17.5 124.5t-93.5 47.5q-22 9 -22 31q0 23 27 33q207 75 227 75q39 0 39 -45q0 1 -3 -100.5t-3 -196.5v-252q0 -71 104 -79q35 -3 35 -27zM803 1065q0 -55 -31.5 -92t-78.5 -37q-97 0 -97 111q0 51 34 86.5t81 35.5q92 0 92 -104z
M441 1065q0 -55 -32.5 -92t-78.5 -37q-96 0 -96 111q0 51 34 86.5t80 35.5q93 0 93 -104z" />
    <glyph glyph-name="dagger" unicode="&#x2020;" horiz-adv-x="842" 
d="M743 950q2 -14 -2 -21t-14 -5q-20 0 -61 16q-75 30 -213 33q6 -47 30 -148q30 -85 25 -114q-7 -41 -68 -543q-2 -17 -24 -23q-12 -2 -15 23l-67 543q-7 54 20 127q26 70 35 135q-163 0 -221 -33q-25 -14 -51 -14q-24 0 -21 26q7 61 0 107q-3 24 19 24q14 0 41 -12
q72 -33 235 -39q-11 138 -81 229q-13 18 -13 29q0 21 29 19q81 -8 200 15q21 3 21 -21q0 -11 -21 -35q-63 -76 -75 -236q147 0 225 31q31 12 43 12q23 0 20 -31q-2 -21 4 -94z" />
    <glyph glyph-name="degree" unicode="&#xb0;" horiz-adv-x="815" 
d="M690 1053q0 -119 -84 -204t-203 -85q-118 0 -198 81t-80 199q0 119 84 203t203 84q118 0 198 -80t80 -198zM580 1044q0 80 -51.5 134.5t-125.5 54.5q-72 0 -119.5 -50.5t-47.5 -129.5q0 -80 51.5 -135.5t124.5 -55.5t120.5 51.5t47.5 130.5z" />
    <glyph glyph-name="cent" unicode="&#xa2;" horiz-adv-x="874" 
d="M803 692q0 -110 -88 -110q-63 0 -115 75q-29 43 -53 58l-62 -621q29 -4 47 -4q107 0 218 72q12 8 24 8q21 0 21 -29q0 -36 -102 -89q-110 -57 -218 -58q-7 -74 -20 -203q-3 -27 -33 -10q-50 20 -45 67q5 50 14 152q-141 21 -223 114q-88 100 -88 265q0 183 114 305
q109 118 279 135q7 86 14 148q4 32 39 18q46 -19 41 -67q-3 -32 -10 -97q109 -6 177.5 -40.5t68.5 -88.5zM463 735q-100 -1 -159 -74q-64 -79 -64 -221q0 -245 163 -321z" />
    <glyph glyph-name="sterling" unicode="&#xa3;" horiz-adv-x="868" 
d="M827 193q-45 -101 -61 -153t-127 -52q-51 0 -167.5 25.5t-158.5 25.5q-100 0 -223 -47q-9 -3 -23 18.5t-14 34.5q0 5 2 6q181 87 181 258q0 23 -5 60h-118q-15 0 -11 43q5 47 23 47h84q-27 83 -27 129q0 105 88 168t236 63q133 0 204 -34q62 -29 62 -76q0 -103 -86 -103
q-58 0 -112.5 65.5t-118.5 65.5q-111 0 -111 -129q0 -57 31 -149h198q21 0 15 -45q-7 -45 -25 -45h-174q2 -7 2 -21q0 -128 -158 -233q78 35 173 35q38 0 108 -10.5t104 -10.5q59 0 88 15.5t60 66.5q5 7 36 0q30 -7 25 -18z" />
    <glyph glyph-name="section" unicode="&#xa7;" horiz-adv-x="834" 
d="M748 242q0 -148 -162 -219q88 -60 88 -168q0 -100 -78.5 -160t-200.5 -60q-130 0 -203 38.5t-73 103.5q0 82 78 82q67 0 102 -76q21 -46 44 -62q27 -18 83 -18q55 0 90 28.5t35 73.5q0 51 -39 81q-43 33 -180.5 84.5t-194.5 102.5q-63 57 -63 142q0 148 162 219
q-89 60 -89 168q0 100 80 160q77 59 199 59q131 0 203.5 -38t72.5 -103q0 -82 -77 -82q-68 0 -103 76q-21 45 -44 61q-27 19 -83 19q-55 0 -90 -28.5t-35 -74.5q0 -50 41 -82t181 -84q136 -50 192 -101q64 -57 64 -142zM616 193q0 83 -204 159q-73 27 -105 43
q-102 -45 -102 -131q0 -83 205 -160q72 -26 104 -43q102 46 102 132z" />
    <glyph glyph-name="bullet" unicode="&#x2022;" horiz-adv-x="868" 
d="M678 637q0 -119 -69.5 -200t-174.5 -81q-244 0 -244 269q0 115 73.5 192.5t178.5 77.5q236 0 236 -258z" />
    <glyph glyph-name="paragraph" unicode="&#xb6;" horiz-adv-x="1038" 
d="M983 834q3 -17 3 -27q0 -32 -52 -45q-65 -17 -85 -29q-38 -23 -38 -71q0 -326 -39 -619q-58 -440 -321 -440q-95 0 -186 32.5t-91 65.5q0 51 46 97t91 46q26 0 85.5 -76.5t99.5 -76.5q56 0 102 95q43 89 53 206q2 15 2 27q0 67 -59 85q-261 81 -366 161q-117 90 -117 233
q0 192 132 259q102 53 390 64q199 8 274 31q30 9 45 9q25 0 31 -27z" />
    <glyph glyph-name="germandbls" unicode="&#xdf;" horiz-adv-x="1196" 
d="M1116 231q0 -108 -70 -175q-77 -72 -212 -72q-175 0 -216 53q-10 13 -10 137q0 53 25 55q26 3 43 -26q72 -129 172 -129q117 0 117 121q0 48 -36 87.5t-134 96.5q-125 72 -170 127q-50 60 -50 153q0 76 115 275q74 128 74 221q0 75 -49.5 120.5t-126.5 45.5
q-92 0 -151 -80q-62 -85 -62 -225v-866q0 -47 49 -66q39 -15 39 -47q0 -28 -14 -34q-9 -4 -37 -3q-115 6 -252 -8q-46 -5 -56 0t-10 35q0 25 58 41q69 19 69 100v389q0 61 -19 85q-13 16 -50 28q-58 18 -58 57q0 27 24 34q8 2 50 3q36 1 45 16q6 11 6 54v159q0 191 124 311
q119 115 300 115q295 0 295 -207q0 -62 -34 -133q-23 -48 -105 -178q-78 -123 -78 -201q0 -56 38 -95q30 -30 128 -87q135 -79 179 -131q50 -59 50 -156z" />
    <glyph glyph-name="registered" unicode="&#xae;" horiz-adv-x="1180" 
d="M1071 852q0 -199 -141 -339t-340 -140q-200 0 -340.5 139.5t-140.5 339.5q0 198 140.5 339.5t340.5 141.5q198 0 339.5 -141.5t141.5 -339.5zM1018 852q0 176 -126.5 302t-301.5 126q-177 0 -302.5 -125.5t-125.5 -302.5t125.5 -302.5t302.5 -125.5q175 0 301.5 126
t126.5 302zM850 614q0 -18 -25 -18q-143 0 -262 240q-28 -5 -41 -7v-153q0 -22 41 -27q29 -7 29 -22q0 -21 -31 -21q-98 2 -158 -4q-22 -2 -22 21q0 18 20 20q33 0 33 33v368q0 33 -37 39q-26 5 -26 19q0 27 32 22h187q184 0 184 -131q0 -107 -121 -143q90 -203 176 -215
q19 -6 21 -21zM680 983q0 102 -117 102q-41 0 -41 -34v-179q158 15 158 111z" />
    <glyph glyph-name="copyright" unicode="&#xa9;" horiz-adv-x="1624" 
d="M1501 655q0 -283 -202.5 -484.5t-485.5 -201.5q-284 0 -486 201t-202 485q0 283 202 485.5t486 202.5q283 0 485.5 -202.5t202.5 -485.5zM1432 655q0 259 -181 443t-438 184q-258 0 -438 -183.5t-180 -443.5t179.5 -442t438.5 -182q258 0 438.5 182.5t180.5 441.5z
M1130 477q-5 -43 -24 -123q-11 -29 -87 -54q-85 -28 -192 -28q-177 0 -296 106.5t-119 274.5q0 171 123 284q119 110 288 110q123 0 200.5 -26.5t80.5 -55.5q4 -37 4 -140q0 -25 -37 -26q-30 -2 -37 20q-28 90 -74.5 125t-138.5 35q-117 0 -188 -79q-76 -84 -76 -234
q0 -148 80 -237t209 -89q147 0 205 147q9 35 51 25q28 -7 28 -35z" />
    <glyph glyph-name="trademark" unicode="&#x2122;" horiz-adv-x="1753" 
d="M1692 664q0 -30 -43 -27q-130 9 -201 0q-35 -5 -35 27q0 22 31 28q56 12 55 41q-5 112 -16 402q-1 9 -5 9t-8 -7q-83 -170 -210 -457q-19 -54 -37 -57q-34 1 -39 34q-32 114 -217 500q-10 -183 -17 -395q-1 -53 56 -66q38 -8 38 -32q0 -30 -43 -27q-114 8 -176 0
q-34 -5 -34 27q0 22 30 28q53 11 56 64l18 442q2 45 -53 66q-30 11 -27 36t35 19q62 -12 129 -4q44 5 57 -25q77 -174 199 -459q7 -16 16 5q34 70 213 440q17 35 41 35q51 0 129 10q43 6 43 -27q0 -25 -35 -30q-54 -9 -53 -37l19 -484q1 -36 47 -47q37 -8 37 -32zM723 1149
q0 -24 -21 -29q-28 -7 -36 21q-20 62 -49 83q-39 27 -136 27q-37 0 -37 -18v-488q0 -40 66 -57q40 -10 35 -35t-43 -20q-110 14 -215 0q-40 -5 -45 20q-6 29 26 37q66 17 66 70v473q0 18 -37 18q-83 0 -121 -23.5t-71 -96.5q-11 -23 -35 -17q-27 6 -19 35q17 56 17 147
q0 21 41 23q96 -10 239 -10q243 0 320 10q38 5 43 -14q12 -52 12 -156z" />
    <glyph glyph-name="acute" unicode="&#xb4;" 
d="M647 1239q0 -19 -22 -53q-119 -145 -256 -264q-21 -18 -54 2q-23 14 -12 28q59 79 109 200q47 113 59 126q27 29 49 29q40 0 85 -26q42 -25 42 -42z" />
    <glyph glyph-name="dieresis" unicode="&#xa8;" 
d="M774 1065q0 -55 -31.5 -92t-78.5 -37q-97 0 -97 111q0 51 34 86.5t81 35.5q92 0 92 -104zM412 1065q0 -55 -32.5 -92t-78.5 -37q-96 0 -96 111q0 51 34 86.5t80 35.5q93 0 93 -104z" />
    <glyph glyph-name="notequal" unicode="&#x2260;" horiz-adv-x="1083" 
d="M905 602q0 -26 -18 -50t-43 -24h-625q-18 0 -18 35q0 58 57 58h629q18 0 18 -19zM811 760l-453 -727q-17 -29 -49 -29q-21 0 -30 12t-3 23l453 727q15 25 55 25q46 0 27 -31zM885 248q0 -26 -18.5 -50t-43.5 -24h-624q-19 0 -19 37q0 57 58 57h628q19 0 19 -20z" />
    <glyph glyph-name="AE" unicode="&#xc6;" horiz-adv-x="1942" 
d="M1823 250q-32 -134 -37 -240q-1 -20 -62 -16q-376 22 -804 -2q-46 -3 -46 35q0 25 46 30q60 7 78 25t18 82v301h-225q-141 0 -224 6l-143 -256q-21 -37 -21 -62q0 -43 66 -67q57 -20 70.5 -30t13.5 -33q0 -31 -78 -23q-170 17 -364 -12q-25 -6 -31 -1t-6 29q0 23 71 52
q79 30 152 149q210 343 537 926q22 40 22 55q0 30 -88 53q-40 11 -31 49q5 19 16 21q12 3 56 -4q67 -11 395 -10q320 2 488 12q51 3 43 3q25 -1 20 -22q-23 -104 -20 -225q0 -31 -29 -31q-27 0 -37 27q-27 69 -49 95q-32 38 -92 48q-48 9 -295 9q-32 0 -40 -11q-5 -6 -5 -30
v-418q0 -25 29 -25q160 3 239 13q36 4 52 42q5 11 18 70q9 43 47 31q34 -7 29 -31q-29 -136 -19 -354q1 -24 -33 -29q-32 -4 -37 33q-10 78 -25 102t-58 29q-82 10 -226 10q-16 0 -16 -14v-436q0 -93 86 -113q24 -6 164 -6q246 0 311 174q15 41 49 27q32 -8 25 -37z
M1016 545v626q0 30 -13 30q-12 0 -28 -27q-105 -178 -363 -625q99 -6 203 -6q24 0 96.5 1t104.5 1z" />
    <glyph glyph-name="Oslash" unicode="&#xd8;" horiz-adv-x="1694" 
d="M1569 659q0 -289 -214 -490q-210 -198 -505 -198q-310 0 -515 186q-210 192 -210 496q0 294 213 494q210 196 512 196q308 0 512 -191q207 -194 207 -493zM1366 625q0 291 -159 460q-153 162 -404 162q-208 0 -341.5 -153.5t-133.5 -399.5q0 -295 155 -464
q151 -164 410 -164q209 0 341 154t132 405zM1454 1364q-304 -405 -1163 -1507q-13 -16 -48.5 11.5t-21.5 45.5q41 52 587 758q538 697 576 747q14 18 48.5 -10.5t21.5 -44.5z" />
    <glyph glyph-name="infinity" unicode="&#x221e;" horiz-adv-x="1593" 
d="M1495 408q0 -157 -99 -270q-105 -120 -268 -120q-229 0 -352 242q-128 -237 -334 -237q-154 0 -251 111q-93 107 -93 269q0 157 99 270q105 120 268 120q230 0 352 -242q128 237 334 237q155 0 251 -111q93 -107 93 -269zM1399 420q0 122 -73.5 200t-190.5 78
q-159 0 -275 -243q126 -297 299 -297q113 0 180 84q60 75 60 178zM733 356q-126 297 -299 297q-112 0 -180 -84q-59 -75 -59 -178q0 -122 73 -200t191 -78q158 0 274 243z" />
    <glyph glyph-name="plusminus" unicode="&#xb1;" horiz-adv-x="1083" 
d="M932 561q0 -19 -18 -37t-42 -18h-268v-270q0 -50 -80 -50q-45 0 -45 21v299h-307q-18 0 -18 26q0 46 57 46h268v274q0 49 96 49q29 0 29 -14v-309h309q19 0 19 -17zM932 55q0 -19 -18 -37t-42 -18h-700q-18 0 -18 27q0 45 57 45h702q19 0 19 -17z" />
    <glyph glyph-name="lessequal" unicode="&#x2264;" horiz-adv-x="803" 
d="M696 190q-11 -16 -47 5l-518 301q-25 14 -25 28t25 29l512 297q41 24 51 10q7 -10 7 -16q0 -12 -33 -39l-355 -281l361 -286q35 -29 22 -48zM713 55q0 -19 -18 -37t-42 -18h-542q-19 0 -19 27q0 45 58 45h544q19 0 19 -17z" />
    <glyph glyph-name="greaterequal" unicode="&#x2265;" horiz-adv-x="803" 
d="M672 496l-512 -297q-41 -24 -51 -11q-8 10 -8 17q0 12 34 39l354 280l-360 287q-36 28 -23 47q12 17 48 -4l518 -301q25 -15 25 -29t-25 -28zM713 55q0 -19 -18 -37t-42 -18h-542q-19 0 -19 27q0 45 58 45h544q19 0 19 -17z" />
    <glyph glyph-name="yen" unicode="&#xa5;" horiz-adv-x="999" 
d="M958 772q0 -34 -49 -47q-38 -10 -90 -74q-126 -156 -213 -289h260q13 0 13 -10q0 -21 -17 -46t-39 -25h-235v-66q0 -63 15 -90q19 -34 77 -47q36 -8 42 -12q17 -10 13 -35q-4 -28 -23 -32q-7 -2 -46 1q-127 9 -275 -4q-35 -3 -43 0q-12 6 -12 35q0 24 51 41q64 20 64 110
v99h-287q-14 0 -14 22q0 59 53 59h213q-72 116 -242 308q-45 51 -94 61q-41 9 -41 33q0 41 43 37q107 -11 264 10q37 9 46 4q9 -4 9 -31q0 -24 -43 -41q-38 -14 -38 -31q0 -7 8 -18q93 -118 194 -264q14 -20 25 -4q54 77 170 244q12 18 12 29q0 22 -49.5 35.5t-44.5 43.5
q5 34 59 27q106 -14 219 -2q45 4 45 -31z" />
    <glyph glyph-name="mu" unicode="&#xb5;" horiz-adv-x="952" 
d="M934 217q-45 -94 -104 -157q-63 -66 -113 -66q-107 0 -107 108q0 50 15 107q2 10 -6 11q-9 1 -15 -9q-53 -88 -125 -151q-89 -76 -172 -76t-129 55q-22 -94 -22 -152q0 -70 41 -125q24 -32 24 -49q0 -18 -42 -35.5t-85 -17.5q-32 0 -59 29.5t-27 54.5q0 55 39 182
q141 461 141 701q0 57 -6 116q-6 68 90 68q70 0 70 -58q0 -7 -2 -16q-9 -46 -71 -275q-54 -200 -54 -229q0 -102 82 -102q101 0 208 144q130 174 173 462q7 47 22 64.5t56 17.5q76 0 76 -44q0 -19 -13 -50q-123 -307 -123 -469q0 -96 70 -96q67 0 135 96q4 5 11 5
q25 0 25 -29q0 -8 -3 -15z" />
    <glyph glyph-name="mu" unicode="&#x3bc;" horiz-adv-x="952" 
d="M934 217q-45 -94 -104 -157q-63 -66 -113 -66q-107 0 -107 108q0 50 15 107q2 10 -6 11q-9 1 -15 -9q-53 -88 -125 -151q-89 -76 -172 -76t-129 55q-22 -94 -22 -152q0 -70 41 -125q24 -32 24 -49q0 -18 -42 -35.5t-85 -17.5q-32 0 -59 29.5t-27 54.5q0 55 39 182
q141 461 141 701q0 57 -6 116q-6 68 90 68q70 0 70 -58q0 -7 -2 -16q-9 -46 -71 -275q-54 -200 -54 -229q0 -102 82 -102q101 0 208 144q130 174 173 462q7 47 22 64.5t56 17.5q76 0 76 -44q0 -19 -13 -50q-123 -307 -123 -469q0 -96 70 -96q67 0 135 96q4 5 11 5
q25 0 25 -29q0 -8 -3 -15z" />
    <glyph glyph-name="partialdiff" unicode="&#x2202;" horiz-adv-x="907" 
d="M825 586q0 -300 -135 -459q-118 -139 -307 -139q-141 0 -222 85q-87 91 -87 261q0 219 139 356q120 119 264 119q142 0 234 -123q5 -7 14 -6t8 12q-21 212 -86 328q-42 75 -69 95q-32 24 -103 24q-31 0 -81 -5.5t-62 -5.5t-24.5 22.5t-12.5 41.5q0 21 86 60.5t139 39.5
t80 -26q124 -124 177 -295q48 -155 48 -385zM649 432q0 131 -51 207t-131 76q-99 0 -163 -87q-68 -95 -68 -259q0 -132 52.5 -210.5t137.5 -78.5q97 0 158 92q65 97 65 260z" />
    <glyph glyph-name="summation" unicode="&#x2211;" horiz-adv-x="1147" 
d="M1051 45q-22 -92 -37 -301q-2 -20 -62 -16q-155 8 -417 8q-267 0 -459 -10q-43 -3 -43 34q0 15 42.5 45t90.5 99l344 491q29 41 29 58q0 14 -17 41l-358 571q-41 65 -94 104q-37 27 -31 50q4 17 15 19q11 3 55 -3q76 -10 389 -10q248 0 442 12q65 4 65 -9q0 -5 -1 -9
q-22 -99 -19 -226q1 -30 -29 -30q-28 0 -38 26q-29 71 -50 95q-32 38 -92 49q-48 8 -383 8q-28 0 -28 -19q0 -12 12 -30l328 -519q22 -35 22 -51q0 -13 -61 -100l-330 -469q-25 -36 -25 -52q0 -20 37 -20h453q74 0 109 37q31 33 67 137q13 38 49 27q31 -10 25 -37z" />
    <glyph glyph-name="product" unicode="&#x220f;" horiz-adv-x="1516" 
d="M1430 -240q0 -25 -7 -31t-37 -3q-195 16 -395 8q-39 -2 -49 4.5t-10 30.5q0 31 53 38q84 12 84 91v1163q0 43 -10 57.5t-47 14.5h-500q-44 0 -55 -11t-11 -57v-1167q0 -57 125 -91q56 -14 56 -38q0 -25 -9.5 -31t-50.5 -4q-199 8 -395 -8q-30 -3 -36.5 3t-6.5 31
q0 27 43 31q98 10 98 107v1155q0 93 -110 116q-40 9 -48 13.5t-8 21.5q0 14 4 23q7 15 58 12q297 -14 348 -14h490q87 0 211.5 7t142.5 7q30 0 36.5 -6t6.5 -31q0 -26 -43 -31q-111 -12 -111 -104v-1169q0 -49 36 -72q27 -18 103 -35q44 -9 44 -31z" />
    <glyph glyph-name="pi" unicode="&#x3c0;" horiz-adv-x="1167" 
d="M1165 834q-14 -71 -12 -127q1 -43 -36 -43q-13 0 -30.5 7t-166.5 7q-37 -102 -84 -322q-33 -151 -33 -227q0 -29 35 -29q25 0 104 90q2 2 5 2q8 0 19 -12.5t11 -22.5q0 -4 -2 -7q-123 -160 -227 -160q-103 0 -103 114q0 66 43 256q24 107 82 318q-73 -1 -219 -4
q-80 -300 -236 -613q-26 -52 -67 -59q-90 -14 -154 -14q-24 0 -24 16q0 28 69 72q98 61 162 176q71 130 154 420q-191 -6 -233 -6t-42 -43t35 -123q3 -6 -11 -16t-24 -10q-6 0 -8 3q-80 121 -80 217q0 113 107 113q11 0 111.5 -4t174.5 -4q255 0 516 12q61 3 86 39
q18 24 50 24q37 0 28 -40z" />
    <glyph glyph-name="integral" unicode="&#x222b;" horiz-adv-x="614" 
d="M672 1229q0 -38 -19 -81.5t-37 -43.5q-16 0 -90 33q-68 30 -112 30q-60 0 -78 -51q-10 -29 -10 -104q0 -129 34 -510q37 -404 37 -496q0 -192 -90 -289q-77 -82 -198 -82q-129 0 -129 39q0 41 15 84t28 43q18 0 73 -32.5t88 -32.5q46 0 57 56q3 15 3 93q0 158 -39 572
q-31 326 -31 444q0 176 94 275q89 94 238 94q166 0 166 -41z" />
    <glyph glyph-name="ordfeminine" unicode="&#xaa;" horiz-adv-x="776" 
d="M719 786q0 -16 -61.5 -51t-96.5 -35q-31 0 -55.5 31t-34.5 31q-7 0 -75.5 -33t-137.5 -33q-67 0 -110 38q-48 41 -48 116q0 134 316 194q55 11 55 43v52q0 131 -115 131q-39 0 -65 -62q-17 -28 -29 -40q-23 -22 -59 -27q-68 -4 -68 57q0 39 99 89q103 52 198 52
q164 0 162 -153l-4 -324q-1 -53 43 -53q9 0 33 5t28 5q25 0 25 -33zM684 524q-10 -64 -61 -63q-323 5 -449 -8q-38 -4 -54 -2q-24 3 -20 28q20 75 64 72q125 -8 471 2q36 1 45.5 -5t3.5 -24zM471 838v127q0 36 -39 28q-110 -21 -154 -51q-38 -27 -38 -74q0 -88 100 -88
q39 0 82 16q49 18 49 42z" />
    <glyph glyph-name="ordmasculine" unicode="&#xba;" horiz-adv-x="811" 
d="M748 1034q0 -139 -102.5 -236.5t-256.5 -97.5q-152 0 -240 87q-86 84 -86 221q0 141 108 238q105 93 251 93q155 0 242 -84q84 -81 84 -221zM721 524q-10 -64 -62 -63q-364 6 -497 -8q-38 -4 -54 -2q-24 3 -20 28q20 75 64 72q140 -9 520 2q36 1 45.5 -5t3.5 -24z
M606 987q0 126 -59 202.5t-150 76.5q-85 0 -138.5 -60t-53.5 -145q0 -139 62 -215q57 -70 151 -70q87 0 139 60q49 57 49 151z" />
    <glyph glyph-name="Omega" unicode="&#x3a9;" horiz-adv-x="1499" 
d="M1405 270q-26 -109 -37 -260q-1 -19 -61 -16q-156 8 -230 8q-66 0 -162 -10q-53 -6 -61 35q-12 63 27 96q143 119 209 246q71 138 71 325q0 211 -104 339q-115 141 -326 141q-178 0 -289 -143q-104 -132 -104 -318q0 -206 71 -346q63 -123 209 -244q40 -33 27 -96
q-8 -41 -61 -35q-96 10 -162 10q-74 0 -229 -8q-61 -3 -62 16q-11 151 -37 260q-6 27 25 37q36 11 49 -26q32 -93 59 -120q34 -34 117 -34h92q34 0 34 16t-34 45q-301 263 -301 514q0 212 177 383q190 185 466 185q264 0 431 -166q155 -155 155 -375q0 -280 -301 -541
q-35 -30 -35 -45q0 -16 35 -16h92q83 0 118 34q26 27 58 120q13 37 49 26q31 -10 25 -37z" />
    <glyph glyph-name="Omega" unicode="&#x2126;" horiz-adv-x="1499" 
d="M1405 270q-26 -109 -37 -260q-1 -19 -61 -16q-156 8 -230 8q-66 0 -162 -10q-53 -6 -61 35q-12 63 27 96q143 119 209 246q71 138 71 325q0 211 -104 339q-115 141 -326 141q-178 0 -289 -143q-104 -132 -104 -318q0 -206 71 -346q63 -123 209 -244q40 -33 27 -96
q-8 -41 -61 -35q-96 10 -162 10q-74 0 -229 -8q-61 -3 -62 16q-11 151 -37 260q-6 27 25 37q36 11 49 -26q32 -93 59 -120q34 -34 117 -34h92q34 0 34 16t-34 45q-301 263 -301 514q0 212 177 383q190 185 466 185q264 0 431 -166q155 -155 155 -375q0 -280 -301 -541
q-35 -30 -35 -45q0 -16 35 -16h92q83 0 118 34q26 27 58 120q13 37 49 26q31 -10 25 -37z" />
    <glyph glyph-name="ae" unicode="&#xe6;" horiz-adv-x="1389" 
d="M1325 168q0 -47 -106 -108q-121 -70 -258 -70q-210 0 -299 160q-160 -160 -347 -160q-94 0 -149 46q-60 50 -60 142q0 181 363 242l98 16q41 7 41 49v64q0 84 -38 119q-40 39 -142 39q-39 0 -81 -77t-111 -83q-82 -8 -82 69q0 48 122 112q128 67 246 67q171 0 205 -107
q93 111 258 111q104 0 181 -57t100 -144q6 -25 26 -29q27 -7 27 -37q0 -48 -100 -65l-463 -80q9 -134 80 -210.5t188 -76.5q158 0 242 84q16 13 43 13q16 0 16 -29zM1096 582q0 55 -44 90t-112 35q-173 0 -182 -240l274 49q64 11 64 66zM629 225q-15 49 -21 88q-6 43 -26 43
q-24 0 -93 -12q-217 -39 -217 -139q0 -111 111 -111q127 0 246 131z" />
    <glyph glyph-name="oslash" unicode="&#xf8;" horiz-adv-x="1018" 
d="M938 403q0 -174 -129 -294.5t-320 -120.5t-302 106q-107 104 -107 275q0 177 135 298q131 117 313 117q195 0 304 -105q106 -102 106 -276zM762 342q0 157 -76 255q-74 95 -188 95q-106 0 -173 -74.5t-67 -181.5q0 -172 78 -268q72 -88 188 -88q110 0 174 73t64 189z
M899 813l-711 -922q-12 -16 -43 15q-34 21 -20 39q236 302 709 919q13 17 44 -8.5t21 -42.5z" />
    <glyph glyph-name="questiondown" unicode="&#xbf;" horiz-adv-x="795" 
d="M635 1221q0 -55 -36 -92t-85 -37q-100 0 -100 110q0 57 34 96t82 39q105 0 105 -116zM692 72q0 -41 -53 -70q-56 -31 -147 -31q-181 0 -307 126q-122 121 -122 286q0 149 91 220q67 51 266 106q37 10 45 51q6 33 22 108q9 33 48 47q12 5 20 5q18 -1 18 -29
q0 -184 11 -268q8 -68 -49 -68q-222 0 -300 -44q-65 -36 -65 -128q0 -126 74 -206q71 -77 178 -77q57 0 110 74q30 41 72 41q38 0 63 -39.5t25 -103.5z" />
    <glyph glyph-name="exclamdown" unicode="&#xa1;" horiz-adv-x="547" 
d="M381 1221q0 -55 -36.5 -92t-86.5 -37q-98 0 -98 110q0 57 34.5 96t81.5 39q105 0 105 -116zM362 137q7 -35 7 -55q0 -67 -115 -94q-27 -7 -44 -7q-48 0 -48 65q0 29 8 77q47 300 47 653q0 63 5 82q11 36 52 57q13 7 21 7q14 0 14 -31q0 -446 53 -754z" />
    <glyph glyph-name="logicalnot" unicode="&#xac;" horiz-adv-x="1083" 
d="M911 154q0 -50 -80 -50q-45 0 -45 21v299h-665q-19 0 -19 27q0 45 58 45h717q34 0 34 -33v-309z" />
    <glyph glyph-name="radical" unicode="&#x221a;" horiz-adv-x="1311" 
d="M1231 1307q9 -2 9 -21q0 -39 -26 -43q-100 -14 -151 -31q-33 -10 -49 -75q-121 -494 -373 -1137q-11 -29 -30 -29q-15 0 -29 21q-147 218 -295 495q-21 39 -58 31q-59 -13 -127 -39q-10 -4 -20.5 12t-10.5 32q0 11 7 14q129 46 244 120q26 17 42 17q18 0 27 -21
q115 -269 211 -399q19 -26 29 2q219 638 274 1018q6 40 14 51q12 16 48 16q-3 0 264 -34z" />
    <glyph glyph-name="florin" unicode="&#x192;" horiz-adv-x="760" 
d="M743 778q0 -38 -18.5 -81.5t-36.5 -43.5q-23 0 -90 33q-63 31 -113 31q-68 0 -96 -61q-24 -51 -37 -195l-4 -47l221 2q23 0 26 -15q1 -6 -3 -36q-13 -43 -103 -39l-149 6l-27 -271q-22 -222 -125 -332q-87 -94 -215 -94q-131 0 -131 39q0 41 15.5 84t27.5 43
q19 0 74 -32.5t90 -32.5q49 0 69 55q22 60 44 264l22 213q8 70 -49 74l-84 6q-26 2 -16 27q10 37 119 37h43l6 43q21 145 119 250q108 114 256 114q165 0 165 -41z" />
    <glyph glyph-name="approxequal" unicode="&#x2248;" horiz-adv-x="1083" 
d="M924 664q-40 -49 -107 -125q-35 -37 -49 -46q-23 -14 -66 -14q-30 0 -163.5 37t-147.5 37q-26 0 -57 -18q-46 -39 -115 -95q-16 -12 -45 11q-26 20 -12 30q70 89 105 126t48 45q24 16 66 16q31 0 165 -38t146 -38q30 0 58 20q33 25 116 95q12 7 43 -13q28 -17 15 -30z
M924 309q-40 -48 -107 -125q-35 -36 -49 -45q-23 -14 -66 -14q-30 0 -163.5 37t-147.5 37q-26 0 -57 -19q-46 -38 -115 -94q-16 -12 -43.5 9t-13.5 32q70 89 105 126t48 45q24 15 66 15q31 0 165 -37.5t146 -37.5q30 0 58 20q33 25 116 94q12 8 43 -12q28 -18 15 -31z" />
    <glyph glyph-name="Delta" unicode="&#x394;" horiz-adv-x="1403" 
d="M1331 12q-11 -25 -43 -20q-110 16 -629 16q-421 0 -542 -18q-36 -6 -45 28q-5 20 37 68q14 17 71 121q231 483 251 526q139 305 196 494q9 32 80 53q16 7 43 -53q188 -431 483 -1053q31 -66 74 -108q31 -32 24 -54zM1061 121q-162 346 -391 833q-8 17 -18 17t-17 -17
q-143 -314 -367 -817q-16 -38 39 -41q187 -10 377 -10q264 0 338 -2q44 -1 44 19q0 8 -5 18z" />
    <glyph glyph-name="Delta" unicode="&#x2206;" horiz-adv-x="1403" 
d="M1331 12q-11 -25 -43 -20q-110 16 -629 16q-421 0 -542 -18q-36 -6 -45 28q-5 20 37 68q14 17 71 121q231 483 251 526q139 305 196 494q9 32 80 53q16 7 43 -53q188 -431 483 -1053q31 -66 74 -108q31 -32 24 -54zM1061 121q-162 346 -391 833q-8 17 -18 17t-17 -17
q-143 -314 -367 -817q-16 -38 39 -41q187 -10 377 -10q264 0 338 -2q44 -1 44 19q0 8 -5 18z" />
    <glyph glyph-name="guillemotleft" unicode="&#xab;" horiz-adv-x="1090" 
d="M977 -16q-8 -16 -31 4l-418 360q-22 19 -22 33q0 13 22 33l416 358q26 22 31 4q10 -38 -17 -71l-258 -324l261 -328q31 -39 16 -69zM549 -16q-8 -16 -31 4l-418 360q-22 19 -22 33q0 13 22 33l416 358q26 22 31 4q10 -38 -17 -71l-258 -324l260 -328q32 -39 17 -69z" />
    <glyph glyph-name="guillemotright" unicode="&#xbb;" horiz-adv-x="1090" 
d="M989 348l-416 -358q-25 -22 -30 -4q-11 38 16 71l258 324l-260 328q-31 39 -16 69q7 16 30 -4l418 -360q22 -20 22 -33q0 -14 -22 -33zM561 348l-416 -358q-25 -22 -30 -4q-11 38 16 71l258 324l-260 328q-31 39 -16 69q7 16 30 -4l418 -360q22 -20 22 -33q0 -14 -22 -33
z" />
    <glyph glyph-name="ellipsis" unicode="&#x2026;" horiz-adv-x="1542" 
d="M1411 111q0 -59 -39.5 -99.5t-91.5 -40.5q-111 0 -111 123q0 60 38 104t89 44q115 0 115 -131zM893 119q0 -63 -33 -105.5t-86 -42.5q-125 0 -125 131q0 60 34.5 100t86.5 40q123 0 123 -123zM373 119q0 -62 -38 -105t-91 -43q-115 0 -115 131q0 59 40 99.5t93 40.5
q111 0 111 -123z" />
    <glyph glyph-name="nonbreakingspace" unicode="&#xa0;" horiz-adv-x="254" 
 />
    <glyph glyph-name="Agrave" unicode="&#xc0;" horiz-adv-x="1567" 
d="M1501 20q-6 -27 -13 -32q-6 -4 -28 2q-143 26 -418 6q-52 -4 -57 20q-5 28 33 43q108 44 108 82q0 15 -12 43q-74 177 -123 285q-71 -4 -250 -4q-148 0 -252 8q-35 -86 -98 -240q-14 -35 -14 -63q0 -56 61 -82q94 -40 92 -61q-2 -34 -63 -27q-188 20 -348 -12
q-42 -9 -47 30q-4 26 65 56q74 31 125 143q195 423 252 556q138 319 195 521q8 31 79 58q17 6 43 -58q216 -520 484 -1112q43 -94 145 -125q46 -13 41 -37zM958 547q-66 150 -206 465q-8 17 -18 17t-17 -17l-191 -461q107 -8 240 -8q82 0 192 4zM850 1484q11 -14 -12 -28
q-33 -20 -54 -2q-137 119 -256 264q-22 34 -22 53q0 17 43.5 42.5t83.5 25.5q22 0 49 -29q12 -13 59 -126q50 -121 109 -200z" />
    <glyph glyph-name="Atilde" unicode="&#xc3;" horiz-adv-x="1567" 
d="M1501 20q-6 -27 -13 -32q-6 -4 -28 2q-143 26 -418 6q-52 -4 -57 20q-5 28 33 43q108 44 108 82q0 15 -12 43q-74 177 -123 285q-71 -4 -250 -4q-148 0 -252 8q-35 -86 -98 -240q-14 -35 -14 -63q0 -56 61 -82q94 -40 92 -61q-2 -34 -63 -27q-188 20 -348 -12
q-42 -9 -47 30q-4 26 65 56q74 31 125 143q195 423 252 556q138 319 195 521q8 31 79 58q17 6 43 -58q216 -520 484 -1112q43 -94 145 -125q46 -13 41 -37zM958 547q-66 150 -206 465q-8 17 -18 17t-17 -17l-191 -461q107 -8 240 -8q82 0 192 4zM1125 1668
q-80 -106 -107 -138q-51 -59 -104 -59q-29 0 -148 35t-131 35q-25 0 -53 -19l-94 -82q-14 -12 -45 15q-25 20 -11 30q65 91 105 137q53 62 104 62q29 0 149 -36t130 -36q29 0 53 21q55 46 96 82q12 10 43 -17q26 -17 13 -30z" />
    <glyph glyph-name="Otilde" unicode="&#xd5;" horiz-adv-x="1694" 
d="M1569 659q0 -289 -214 -490q-210 -198 -505 -198q-310 0 -515 186q-210 192 -210 496q0 294 213 494q210 196 512 196q308 0 512 -191q207 -194 207 -493zM1366 625q0 291 -159 460q-153 162 -404 162q-208 0 -341.5 -153.5t-133.5 -399.5q0 -295 155 -464
q151 -164 410 -164q209 0 341 154t132 405zM1190 1668q-80 -106 -107 -138q-51 -59 -104 -59q-29 0 -148 35t-131 35q-25 0 -53 -19l-94 -82q-14 -12 -45 15q-25 20 -11 30q65 91 105 137q53 62 104 62q29 0 149 -36t130 -36q29 0 53 21q55 46 96 82q12 10 43 -17
q26 -17 13 -30z" />
    <glyph glyph-name="OE" unicode="&#x152;" horiz-adv-x="1944" 
d="M1823 250q-30 -141 -35 -240q-1 -20 -62 -16q-178 10 -569 10q-29 0 -136 -7t-194 -7q-308 0 -502 176q-200 183 -200 487q0 289 213 482q205 186 489 186q54 0 177 -8t204 -8q291 0 506 14q67 4 67 -11q0 -4 -1 -8q-23 -95 -21 -225q1 -31 -28 -31q-26 0 -37 27
q-29 71 -50 95q-32 38 -94 48q-48 9 -297 9q-33 0 -42 -11q-5 -6 -5 -30v-418q0 -25 29 -25q83 2 246 13q30 3 44 29q12 21 23 83q10 34 32 34q7 0 15 -3q34 -6 29 -31q-28 -136 -18 -354q1 -24 -33 -29q-30 -4 -35 33q-10 77 -25.5 101.5t-58.5 29.5q-82 10 -229 10
q-19 0 -19 -14v-436q0 -92 77 -113q23 -6 155 -6q248 0 313 174q15 40 47 27q31 -7 25 -37zM1034 186v899q0 80 -51 110t-201 30q-188 0 -318 -142q-136 -150 -136 -389q0 -296 144 -455q142 -155 398 -155q164 0 164 102z" />
    <glyph glyph-name="oe" unicode="&#x153;" horiz-adv-x="1499" 
d="M1436 168q0 -44 -110 -107q-124 -71 -261 -71q-189 0 -291 172q-98 -174 -313 -174q-181 0 -283 106q-98 103 -98 275q0 175 121.5 295t294.5 120q223 0 315 -159q98 161 289 161q98 0 180 -61q71 -55 96 -127q9 -26 27 -29q27 -7 27 -37q0 -33 -101 -65l-442 -141
q19 -99 81 -161q67 -65 160 -65q101 0 248 84q22 13 43 13q17 0 17 -29zM1202 559q0 57 -40.5 96t-106.5 39q-79 0 -126 -65q-50 -70 -50 -199v-22l258 84q65 21 65 67zM721 342q0 156 -73.5 253t-182.5 97q-96 0 -154.5 -77.5t-58.5 -190.5q0 -162 63 -253t177 -91
q99 0 164 74.5t65 187.5z" />
    <glyph glyph-name="endash" unicode="&#x2013;" horiz-adv-x="1012" 
d="M842 500q-435 11 -664 -11q-96 -9 -96 21q0 33 23 68q26 40 57 38q189 -9 696 2q65 2 66 -21q0 -33 -25 -65.5t-57 -31.5z" />
    <glyph glyph-name="emdash" unicode="&#x2014;" horiz-adv-x="1815" 
d="M1645 500q-109 3 -734 0q-660 -4 -733 -11q-96 -9 -96 21q0 33 23 68q26 40 57 38q85 -4 751 -2q629 2 748 4q65 2 66 -21q0 -33 -25 -65.5t-57 -31.5z" />
    <glyph glyph-name="quotedblleft" unicode="&#x201c;" horiz-adv-x="918" 
d="M788 1294q4 -10 4 -17q0 -17 -57 -56q-98 -68 -98 -136q0 -39 55 -75q82 -54 82 -125q0 -49 -32.5 -82t-88.5 -33q-66 0 -102.5 48.5t-36.5 125.5q0 134 60 224q47 70 159 147q19 12 28 12q15 0 27 -33zM375 1294q4 -10 4 -17q0 -17 -57 -56q-99 -68 -99 -136
q0 -39 56 -75q81 -54 81 -125q0 -49 -32.5 -82t-87.5 -33q-66 0 -103 48.5t-37 125.5q0 134 60 224q47 70 159 147q19 12 29 12q15 0 27 -33z" />
    <glyph glyph-name="quotedblright" unicode="&#x201d;" horiz-adv-x="918" 
d="M795 1163q0 -134 -60 -223q-47 -71 -160 -147q-18 -13 -28 -13q-15 0 -27 33q-4 11 -4 17q0 18 57 57q99 67 99 135q0 39 -56 76q-81 54 -81 125q0 49 32.5 81.5t87.5 32.5q66 0 103 -48t37 -126zM381 1163q0 -134 -60 -223q-47 -71 -159 -147q-19 -13 -28 -13
q-15 0 -28 33q-3 11 -3 17q0 18 57 57q98 67 98 135q0 39 -55 76q-82 54 -82 125q0 49 32.5 81.5t88.5 32.5q66 0 102.5 -48t36.5 -126z" />
    <glyph glyph-name="quoteleft" unicode="&#x2018;" horiz-adv-x="504" 
d="M375 1294q4 -10 4 -17q0 -17 -57 -56q-99 -68 -99 -136q0 -39 56 -75q81 -54 81 -125q0 -49 -32.5 -82t-87.5 -33q-66 0 -103 48.5t-37 125.5q0 134 60 224q47 70 159 147q19 12 29 12q15 0 27 -33z" />
    <glyph glyph-name="quoteright" unicode="&#x2019;" horiz-adv-x="504" 
d="M381 1163q0 -134 -60 -223q-47 -71 -159 -147q-19 -13 -28 -13q-15 0 -28 33q-3 11 -3 17q0 18 57 57q98 67 98 135q0 39 -55 76q-82 54 -82 125q0 49 32.5 81.5t88.5 32.5q66 0 102.5 -48t36.5 -126z" />
    <glyph glyph-name="divide" unicode="&#xf7;" horiz-adv-x="1083" 
d="M645 725q0 -54 -32 -91.5t-78 -37.5q-97 0 -97 113q0 51 34.5 85.5t80.5 34.5q92 0 92 -104zM983 418q0 -20 -18 -38t-41 -18h-803q-19 0 -19 27q0 45 58 45h805q18 0 18 -16zM645 100q0 -53 -32 -91t-78 -38q-97 0 -97 113q0 51 34.5 86t80.5 35q92 0 92 -105z" />
    <glyph glyph-name="lozenge" unicode="&#x25ca;" horiz-adv-x="826" 
d="M798 574l-347 -508h-72l-349 508l349 508h72zM659 574l-245 371l-245 -371l245 -371z" />
    <glyph glyph-name="ydieresis" unicode="&#xff;" horiz-adv-x="1100" 
d="M1036 748q0 -27 -43.5 -47t-66.5 -76q-102 -244 -264 -559q-37 -67 -102.5 -197.5t-199.5 -341.5q-44 -70 -120 -57q-66 10 -110.5 37.5t-39.5 52.5q9 42 60 47q88 8 115 16q33 11 57 41q51 66 125 197q69 122 69 137q0 10 -125 241q-169 312 -205 379q-33 64 -71 74
q-64 17 -64 43q0 38 41 35q211 -16 387 12q31 5 31 -20q0 -35 -49 -47q-74 -18 -74 -65q0 -9 4 -19q49 -115 132 -277q78 -153 85 -153q9 0 66 125q66 146 123 307q1 4 1 9q0 48 -48 67q-56 21 -56 36q0 34 35 29q143 -22 266 -4q29 4 35 0t6 -22zM866 1065q0 -55 -31.5 -92
t-78.5 -37q-97 0 -97 111q0 51 34 86.5t81 35.5q92 0 92 -104zM504 1065q0 -55 -32.5 -92t-78.5 -37q-96 0 -96 111q0 51 34 86.5t80 35.5q93 0 93 -104z" />
    <glyph glyph-name="Ydieresis" unicode="&#x178;" horiz-adv-x="1575" 
d="M1516 1290q0 -34 -64 -53q-73 -22 -162 -137q-175 -228 -218 -286q-101 -138 -177 -263v-354q0 -71 27 -97q22 -20 102 -39q60 -13 53 -49q-4 -23 -24 -25q-2 -1 -41 3q-199 17 -391 2q-60 -11 -66 24q-6 33 35 43q82 22 106.5 53.5t24.5 112.5v273q-136 266 -451 637
q-81 95 -164 112q-49 10 -49 29q0 46 43 41q181 -22 441 18q36 6 45 4q16 -5 16 -34q0 -22 -51 -41q-87 -33 -87 -71q0 -19 21 -48q127 -170 332 -488q12 -18 19 -18q8 0 20 18q44 66 150.5 216t158.5 229q26 38 26 66q0 53 -91 83q-49 17 -45 47q4 35 67 27q197 -24 351 -4
q43 5 43 -31zM1112 1577q0 -55 -31.5 -92t-78.5 -37q-97 0 -97 111q0 51 34 86.5t81 35.5q92 0 92 -104zM750 1577q0 -55 -32.5 -92t-78.5 -37q-96 0 -96 111q0 51 34 86.5t80 35.5q93 0 93 -104z" />
    <glyph glyph-name="fraction" unicode="&#x2044;" horiz-adv-x="659" 
d="M645 1038q-348 -818 -563 -1341q-13 -24 -57 -2q-41 20 -33 39q108 255 561 1341q11 26 55 4q48 -16 37 -41z" />
    <glyph glyph-name="fraction" unicode="&#x2215;" horiz-adv-x="659" 
d="M645 1038q-348 -818 -563 -1341q-13 -24 -57 -2q-41 20 -33 39q108 255 561 1341q11 26 55 4q48 -16 37 -41z" />
    <glyph glyph-name="currency" unicode="&#xa4;" horiz-adv-x="1083" 
d="M926 68q12 -13 -6 -31q-15 -14 -31 -14q-20 0 -43 22l-117 115q-78 -62 -192 -62q-104 0 -183 60l-145 -146q-15 -12 -33 6q-14 14 -14 31q0 21 22 43l117 117q-59 79 -59 182q0 118 61 199l-147 147q-14 14 -2 25q13 13 37 13q26 1 42 -15l119 -119q84 68 197 68
q109 0 190 -62l138 137q13 11 24 0q14 -13 14 -37q0 -26 -16 -42l-111 -111q54 -72 54 -176q0 -118 -62 -205zM768 418q0 100 -60 162.5t-159 62.5q-102 0 -168 -68t-66 -184q0 -99 61.5 -163t160.5 -64q110 0 172 73q59 69 59 181z" />
    <glyph glyph-name="guilsinglleft" unicode="&#x2039;" horiz-adv-x="659" 
d="M549 -16q-8 -16 -31 4l-418 360q-22 19 -22 33q0 13 22 33l416 358q26 22 31 4q10 -38 -17 -71l-258 -324l260 -328q32 -39 17 -69z" />
    <glyph glyph-name="guilsinglright" unicode="&#x203a;" horiz-adv-x="659" 
d="M561 348l-416 -358q-25 -22 -30 -4q-11 38 16 71l258 324l-260 328q-31 39 -16 69q7 16 30 -4l418 -360q22 -20 22 -33q0 -14 -22 -33z" />
    <glyph glyph-name="fi" unicode="&#xf001;" horiz-adv-x="1174" 
d="M1128 25q-4 -29 -24 -33q-6 -1 -49 2q-148 10 -291 -4q-41 -4 -50 1t-9 32q0 28 26 36q52 16 68 37t16 78v373q0 61 -28 85.5t-101 24.5h-223q-85 0 -88 -36q-2 -21 0 -435q0 -53 33 -76q29 -21 106 -32q35 -5 43 -12t8 -33q0 -28 -11 -34q-6 -3 -40 -1q-194 10 -354 -6
q-46 -5 -56 0t-10 35q0 25 58 41q69 19 69 100v389q0 61 -19 85q-13 16 -50 28q-58 18 -58 57q0 27 24 34q8 2 50 3q36 1 45 16q6 11 6 54v90q0 219 139 357t351 138q105 0 187.5 -37.5t82.5 -87.5q0 -41 -52 -92q-48 -47 -79 -47q-40 0 -94 74q-67 90 -111 90
q-268 0 -268 -381v-137q0 -46 86 -43l325 10q38 1 85 14t65 13q40 0 39 -52q-6 -196 -6 -534q0 -66 21 -95t79 -42q65 -15 59 -47z" />
    <glyph glyph-name="fi" unicode="&#xfb01;" horiz-adv-x="1174" 
d="M1128 25q-4 -29 -24 -33q-6 -1 -49 2q-148 10 -291 -4q-41 -4 -50 1t-9 32q0 28 26 36q52 16 68 37t16 78v373q0 61 -28 85.5t-101 24.5h-223q-85 0 -88 -36q-2 -21 0 -435q0 -53 33 -76q29 -21 106 -32q35 -5 43 -12t8 -33q0 -28 -11 -34q-6 -3 -40 -1q-194 10 -354 -6
q-46 -5 -56 0t-10 35q0 25 58 41q69 19 69 100v389q0 61 -19 85q-13 16 -50 28q-58 18 -58 57q0 27 24 34q8 2 50 3q36 1 45 16q6 11 6 54v90q0 219 139 357t351 138q105 0 187.5 -37.5t82.5 -87.5q0 -41 -52 -92q-48 -47 -79 -47q-40 0 -94 74q-67 90 -111 90
q-268 0 -268 -381v-137q0 -46 86 -43l325 10q38 1 85 14t65 13q40 0 39 -52q-6 -196 -6 -534q0 -66 21 -95t79 -42q65 -15 59 -47z" />
    <glyph glyph-name="fl" unicode="&#xf002;" horiz-adv-x="1219" 
d="M1190 29q0 -40 -47 -35q-137 13 -340 -4q-41 -4 -50.5 2t-9.5 33q0 24 54.5 40.5t54.5 98.5v817q0 156 -53 228.5t-176 72.5q-248 0 -248 -289v-192q0 -50 86 -43l127 10q75 6 82 -24q2 -10 2 -29q0 -41 -20 -51q-12 -7 -62 -7h-127q-85 0 -88 -36q-2 -21 0 -435
q0 -93 162 -106q34 -3 40 -7q11 -6 11 -34q0 -26 -6 -33q-8 -10 -45 -8q-208 11 -377 -6q-46 -5 -56 0t-10 35q0 25 58 41q69 19 69 100v389q0 61 -19 85q-13 16 -50 28q-58 18 -58 57q0 27 24 34q8 2 50 3q36 1 45 16q6 11 6 54v127q0 194 144 322q138 122 337 122
q76 0 174 -16q21 -4 55.5 17t45.5 21q39 0 39 -51q0 4 -5 -122q-4 -122 -3 -216l6 -850q0 -64 34 -92q28 -23 97 -33q47 -5 47 -34z" />
    <glyph glyph-name="fl" unicode="&#xfb02;" horiz-adv-x="1219" 
d="M1190 29q0 -40 -47 -35q-137 13 -340 -4q-41 -4 -50.5 2t-9.5 33q0 24 54.5 40.5t54.5 98.5v817q0 156 -53 228.5t-176 72.5q-248 0 -248 -289v-192q0 -50 86 -43l127 10q75 6 82 -24q2 -10 2 -29q0 -41 -20 -51q-12 -7 -62 -7h-127q-85 0 -88 -36q-2 -21 0 -435
q0 -93 162 -106q34 -3 40 -7q11 -6 11 -34q0 -26 -6 -33q-8 -10 -45 -8q-208 11 -377 -6q-46 -5 -56 0t-10 35q0 25 58 41q69 19 69 100v389q0 61 -19 85q-13 16 -50 28q-58 18 -58 57q0 27 24 34q8 2 50 3q36 1 45 16q6 11 6 54v127q0 194 144 322q138 122 337 122
q76 0 174 -16q21 -4 55.5 17t45.5 21q39 0 39 -51q0 4 -5 -122q-4 -122 -3 -216l6 -850q0 -64 34 -92q28 -23 97 -33q47 -5 47 -34z" />
    <glyph glyph-name="daggerdbl" unicode="&#x2021;" horiz-adv-x="842" 
d="M743 950q3 -30 -20 -30q-8 0 -64 22q-75 31 -206 35q12 -149 41 -234q25 -77 6 -155q-36 -142 -47 -277q166 7 227 39q19 10 35 10q21 0 18 -18q-8 -55 0 -121q3 -24 -12 -24q-14 0 -45 16q-78 41 -225 47q12 -170 69 -223q27 -25 27 -33q0 -27 -29 -20q-92 22 -196 2
q-25 -5 -25 18q0 5 33 57q61 99 61 199q-174 0 -229 -41q-17 -12 -35 -12q-17 0 -14 18q4 39 -7 125q-2 21 19 21q11 0 35 -13q80 -41 229 -47q-13 151 -45 248q-27 84 -8 160q36 142 53 258q-174 -3 -229 -35q-29 -16 -41 -16q-26 0 -23 24q7 58 0 109q-3 24 19 24
q11 0 41 -14q73 -35 235 -41q-11 143 -81 233q-13 18 -13 29q0 21 29 19q81 -8 200 15q21 3 21 -21q0 -11 -21 -35q-62 -75 -75 -240q131 4 223 35q30 10 47 10q20 0 18 -23.5t4 -99.5z" />
    <glyph glyph-name="periodcentered" unicode="&#xb7;" horiz-adv-x="504" 
d="M373 575q0 -61 -38 -105t-91 -44q-115 0 -115 131q0 59 40 99t93 40q111 0 111 -121z" />
    <glyph glyph-name="periodcentered" unicode="&#x2219;" horiz-adv-x="504" 
d="M373 575q0 -61 -38 -105t-91 -44q-115 0 -115 131q0 59 40 99t93 40q111 0 111 -121z" />
    <glyph glyph-name="quotesinglbase" unicode="&#x201a;" horiz-adv-x="504" 
d="M381 49q0 -134 -60 -223q-47 -71 -159 -148q-19 -12 -28 -12q-15 0 -28 33q-3 10 -3 17q0 18 57 57q98 67 98 135q0 39 -55 76q-82 54 -82 125q0 49 32.5 81.5t88.5 32.5q66 0 102.5 -48t36.5 -126z" />
    <glyph glyph-name="quotedblbase" unicode="&#x201e;" horiz-adv-x="918" 
d="M795 49q0 -134 -60 -223q-47 -71 -160 -148q-18 -12 -28 -12q-15 0 -27 33q-4 10 -4 17q0 18 57 57q99 67 99 135q0 39 -56 76q-81 54 -81 125q0 49 32.5 81.5t87.5 32.5q66 0 103 -48t37 -126zM381 49q0 -134 -60 -223q-47 -71 -159 -148q-19 -12 -28 -12q-15 0 -28 33
q-3 10 -3 17q0 18 57 57q98 67 98 135q0 39 -55 76q-82 54 -82 125q0 49 32.5 81.5t88.5 32.5q66 0 102.5 -48t36.5 -126z" />
    <glyph glyph-name="perthousand" unicode="&#x2030;" horiz-adv-x="2316" 
d="M2236 268q0 -132 -77 -216q-81 -87 -213 -87q-122 0 -202.5 81.5t-80.5 203.5q0 135 87 219q83 80 206 80q124 0 202 -78t78 -203zM1561 268q0 -132 -78 -216q-81 -87 -213 -87q-121 0 -202 81.5t-81 203.5q0 135 87 219q83 80 206 80q124 0 202.5 -78t78.5 -203z
M1137 815q-207 -318 -572 -895q-10 -21 -45.5 5.5t-25.5 41.5q157 247 571 893q13 20 45 -4q36 -27 27 -41zM653 555q0 -132 -78 -216q-80 -87 -213 -87q-121 0 -201.5 81.5t-80.5 203.5q0 135 87 219q83 80 206 80q124 0 202 -78.5t78 -202.5zM2081 256q0 225 -127 225
q-135 0 -135 -217q0 -231 135 -231q127 0 127 223zM1405 256q0 225 -127 225q-135 0 -135 -217q0 -231 135 -231q127 0 127 223zM498 543q0 225 -127 225q-135 0 -135 -217q0 -232 135 -232q127 0 127 224z" />
    <glyph glyph-name="Acircumflex" unicode="&#xc2;" horiz-adv-x="1567" 
d="M1501 20q-6 -27 -13 -32q-6 -4 -28 2q-143 26 -418 6q-52 -4 -57 20q-5 28 33 43q108 44 108 82q0 15 -12 43q-74 177 -123 285q-71 -4 -250 -4q-148 0 -252 8q-35 -86 -98 -240q-14 -35 -14 -63q0 -56 61 -82q94 -40 92 -61q-2 -34 -63 -27q-188 20 -348 -12
q-42 -9 -47 30q-4 26 65 56q74 31 125 143q195 423 252 556q138 319 195 521q8 31 79 58q17 6 43 -58q216 -520 484 -1112q43 -94 145 -125q46 -13 41 -37zM958 547q-66 150 -206 465q-8 17 -18 17t-17 -17l-191 -461q107 -8 240 -8q82 0 192 4zM1034 1433q11 -14 -12 -28
q-35 -21 -54 -6q-119 94 -205 192q-69 -80 -204 -192q-19 -16 -54 6q-23 14 -12 28q154 195 221 326q17 25 49 25q34 0 50 -25q56 -113 221 -326z" />
    <glyph glyph-name="Ecircumflex" unicode="&#xca;" horiz-adv-x="1266" 
d="M1147 250q-28 -119 -37 -240q-1 -19 -61 -16q-156 8 -398 8q-266 0 -458 -10q-43 -2 -43 35q0 26 43 30q60 7 77 23q21 20 21 84v921q0 93 -17 117.5t-94 48.5q-41 13 -30 49q5 19 16 21q10 3 53 -4q64 -10 334 -10q269 0 463 12q65 4 65 -9q0 -5 -2 -10
q-21 -98 -18 -225q1 -31 -29 -31q-28 0 -39 27q-28 70 -49 95q-32 38 -92 48q-48 9 -338 9q-33 0 -42 -11q-5 -6 -5 -30v-418q0 -25 29 -25q92 2 264 13q30 3 44 29q11 20 23 83q9 43 47 31q34 -6 29 -31q-28 -136 -18 -354q1 -24 -33 -29q-30 -4 -35 33q-10 77 -25.5 101.5
t-58.5 29.5q-82 10 -248 10q-18 0 -18 -14v-436q0 -93 108 -114q27 -5 187 -5q249 0 311 174q15 41 49 27q32 -8 25 -37zM893 1464q11 -14 -12 -28q-35 -21 -54 -6q-119 94 -205 192q-69 -80 -204 -192q-19 -16 -54 6q-23 14 -12 28q154 195 221 326q17 25 49 25
q34 0 50 -25q56 -113 221 -326z" />
    <glyph glyph-name="Aacute" unicode="&#xc1;" horiz-adv-x="1567" 
d="M1501 20q-6 -27 -13 -32q-6 -4 -28 2q-143 26 -418 6q-52 -4 -57 20q-5 28 33 43q108 44 108 82q0 15 -12 43q-74 177 -123 285q-71 -4 -250 -4q-148 0 -252 8q-35 -86 -98 -240q-14 -35 -14 -63q0 -56 61 -82q94 -40 92 -61q-2 -34 -63 -27q-188 20 -348 -12
q-42 -9 -47 30q-4 26 65 56q74 31 125 143q195 423 252 556q138 319 195 521q8 31 79 58q17 6 43 -58q216 -520 484 -1112q43 -94 145 -125q46 -13 41 -37zM958 547q-66 150 -206 465q-8 17 -18 17t-17 -17l-191 -461q107 -8 240 -8q82 0 192 4zM987 1771q0 -19 -22 -53
q-119 -145 -256 -264q-21 -18 -54 2q-23 14 -12 28q59 79 109 200q47 113 59 126q27 29 49 29q40 0 85 -26q42 -25 42 -42z" />
    <glyph glyph-name="Edieresis" unicode="&#xcb;" horiz-adv-x="1266" 
d="M1147 250q-28 -119 -37 -240q-1 -19 -61 -16q-156 8 -398 8q-266 0 -458 -10q-43 -2 -43 35q0 26 43 30q60 7 77 23q21 20 21 84v921q0 93 -17 117.5t-94 48.5q-41 13 -30 49q5 19 16 21q10 3 53 -4q64 -10 334 -10q269 0 463 12q65 4 65 -9q0 -5 -2 -10
q-21 -98 -18 -225q1 -31 -29 -31q-28 0 -39 27q-28 70 -49 95q-32 38 -92 48q-48 9 -338 9q-33 0 -42 -11q-5 -6 -5 -30v-418q0 -25 29 -25q92 2 264 13q30 3 44 29q11 20 23 83q9 43 47 31q34 -6 29 -31q-28 -136 -18 -354q1 -24 -33 -29q-30 -4 -35 33q-10 77 -25.5 101.5
t-58.5 29.5q-82 10 -248 10q-18 0 -18 -14v-436q0 -93 108 -114q27 -5 187 -5q249 0 311 174q15 41 49 27q32 -8 25 -37zM911 1577q0 -55 -31.5 -92t-78.5 -37q-97 0 -97 111q0 51 34 86.5t81 35.5q92 0 92 -104zM549 1577q0 -55 -32.5 -92t-78.5 -37q-96 0 -96 111
q0 51 34 86.5t80 35.5q93 0 93 -104z" />
    <glyph glyph-name="Egrave" unicode="&#xc8;" horiz-adv-x="1266" 
d="M1147 250q-28 -119 -37 -240q-1 -19 -61 -16q-156 8 -398 8q-266 0 -458 -10q-43 -2 -43 35q0 26 43 30q60 7 77 23q21 20 21 84v921q0 93 -17 117.5t-94 48.5q-41 13 -30 49q5 19 16 21q10 3 53 -4q64 -10 334 -10q269 0 463 12q65 4 65 -9q0 -5 -2 -10
q-21 -98 -18 -225q1 -31 -29 -31q-28 0 -39 27q-28 70 -49 95q-32 38 -92 48q-48 9 -338 9q-33 0 -42 -11q-5 -6 -5 -30v-418q0 -25 29 -25q92 2 264 13q30 3 44 29q11 20 23 83q9 43 47 31q34 -6 29 -31q-28 -136 -18 -354q1 -24 -33 -29q-30 -4 -35 33q-10 77 -25.5 101.5
t-58.5 29.5q-82 10 -248 10q-18 0 -18 -14v-436q0 -93 108 -114q27 -5 187 -5q249 0 311 174q15 41 49 27q32 -8 25 -37zM721 1464q11 -14 -12 -28q-33 -20 -54 -2q-137 119 -256 264q-22 34 -22 53q0 17 43.5 42.5t83.5 25.5q22 0 49 -29q12 -13 59 -126q50 -121 109 -200z
" />
    <glyph glyph-name="Iacute" unicode="&#xcd;" horiz-adv-x="801" 
d="M662 1294q0 -25 -54 -41q-121 -36 -121 -94v-973q0 -94 111 -114q55 -10 55 -39q0 -25 -9.5 -31t-51.5 -4q-264 11 -408 0q-37 -3 -43 14q-2 7 -2 21q0 20 45 30q84 19 97 27q32 20 32 82v981q0 83 -112 102q-47 8 -47 29q0 29 7.5 35.5t35.5 3.5q195 -21 403 4
q39 5 46 3q16 -5 16 -36zM665 1751q0 -19 -22 -53q-119 -145 -256 -264q-21 -18 -54 2q-23 14 -12 28q59 79 109 200q47 113 59 126q27 29 49 29q40 0 85 -26q42 -25 42 -42z" />
    <glyph glyph-name="Icircumflex" unicode="&#xce;" horiz-adv-x="801" 
d="M662 1294q0 -25 -54 -41q-121 -36 -121 -94v-973q0 -94 111 -114q55 -10 55 -39q0 -25 -9.5 -31t-51.5 -4q-264 11 -408 0q-37 -3 -43 14q-2 7 -2 21q0 20 45 30q84 19 97 27q32 20 32 82v981q0 83 -112 102q-47 8 -47 29q0 29 7.5 35.5t35.5 3.5q195 -21 403 4
q39 5 46 3q16 -5 16 -36zM674 1464q11 -14 -12 -28q-35 -21 -54 -6q-119 94 -205 192q-69 -80 -204 -192q-19 -16 -54 6q-23 14 -12 28q154 195 221 326q17 25 49 25q34 0 50 -25q56 -113 221 -326z" />
    <glyph glyph-name="Idieresis" unicode="&#xcf;" horiz-adv-x="801" 
d="M662 1294q0 -25 -54 -41q-121 -36 -121 -94v-973q0 -94 111 -114q55 -10 55 -39q0 -25 -9.5 -31t-51.5 -4q-264 11 -408 0q-37 -3 -43 14q-2 7 -2 21q0 20 45 30q84 19 97 27q32 20 32 82v981q0 83 -112 102q-47 8 -47 29q0 29 7.5 35.5t35.5 3.5q195 -21 403 4
q39 5 46 3q16 -5 16 -36zM698 1577q0 -55 -31.5 -92t-78.5 -37q-97 0 -97 111q0 51 34 86.5t81 35.5q92 0 92 -104zM336 1577q0 -55 -32.5 -92t-78.5 -37q-96 0 -96 111q0 51 34 86.5t80 35.5q93 0 93 -104z" />
    <glyph glyph-name="Igrave" unicode="&#xcc;" horiz-adv-x="801" 
d="M662 1294q0 -25 -54 -41q-121 -36 -121 -94v-973q0 -94 111 -114q55 -10 55 -39q0 -25 -9.5 -31t-51.5 -4q-264 11 -408 0q-37 -3 -43 14q-2 7 -2 21q0 20 45 30q84 19 97 27q32 20 32 82v981q0 83 -112 102q-47 8 -47 29q0 29 7.5 35.5t35.5 3.5q195 -21 403 4
q39 5 46 3q16 -5 16 -36zM500 1464q11 -14 -12 -28q-33 -20 -54 -2q-137 119 -256 264q-22 34 -22 53q0 17 43.5 42.5t83.5 25.5q22 0 49 -29q12 -13 59 -126q50 -121 109 -200z" />
    <glyph glyph-name="Oacute" unicode="&#xd3;" horiz-adv-x="1694" 
d="M1569 659q0 -289 -214 -490q-210 -198 -505 -198q-310 0 -515 186q-210 192 -210 496q0 294 213 494q210 196 512 196q308 0 512 -191q207 -194 207 -493zM1366 625q0 291 -159 460q-153 162 -404 162q-208 0 -341.5 -153.5t-133.5 -399.5q0 -295 155 -464
q151 -164 410 -164q209 0 341 154t132 405zM1057 1771q0 -19 -22 -53q-119 -145 -256 -264q-21 -18 -54 2q-23 14 -12 28q59 79 109 200q47 113 59 126q27 29 49 29q40 0 85 -26q42 -25 42 -42z" />
    <glyph glyph-name="Ocircumflex" unicode="&#xd4;" horiz-adv-x="1694" 
d="M1569 659q0 -289 -214 -490q-210 -198 -505 -198q-310 0 -515 186q-210 192 -210 496q0 294 213 494q210 196 512 196q308 0 512 -191q207 -194 207 -493zM1366 625q0 291 -159 460q-153 162 -404 162q-208 0 -341.5 -153.5t-133.5 -399.5q0 -295 155 -464
q151 -164 410 -164q209 0 341 154t132 405zM1104 1464q11 -14 -12 -28q-35 -21 -54 -6q-119 94 -205 192q-69 -80 -204 -192q-19 -16 -54 6q-23 14 -12 28q154 195 221 326q17 25 49 25q34 0 50 -25q56 -113 221 -326z" />
    <glyph glyph-name="apple" horiz-adv-x="1024" 
d="M128 0v1516h768v-1516h-768zM256 128h512v1260h-512v-1260z" />
    <glyph glyph-name="Ograve" unicode="&#xd2;" horiz-adv-x="1694" 
d="M1569 659q0 -289 -214 -490q-210 -198 -505 -198q-310 0 -515 186q-210 192 -210 496q0 294 213 494q210 196 512 196q308 0 512 -191q207 -194 207 -493zM1366 625q0 291 -159 460q-153 162 -404 162q-208 0 -341.5 -153.5t-133.5 -399.5q0 -295 155 -464
q151 -164 410 -164q209 0 341 154t132 405zM903 1484q11 -14 -12 -28q-33 -20 -54 -2q-137 119 -256 264q-22 34 -22 53q0 17 43.5 42.5t83.5 25.5q22 0 49 -29q12 -13 59 -126q50 -121 109 -200z" />
    <glyph glyph-name="Uacute" unicode="&#xda;" horiz-adv-x="1673" 
d="M1589 1282q0 -20 -45 -31q-78 -18 -99 -36q-28 -25 -28 -93v-573q0 -275 -143 -424q-147 -154 -426 -154q-590 0 -590 555v600q0 95 -111 115q-38 7 -46.5 13t-8.5 24q0 31 15 36q7 3 47 1q269 -14 411 0q30 3 36.5 -3t6.5 -34q0 -21 -43 -31q-84 -18 -97 -26
q-32 -20 -32 -82v-578q0 -255 106 -374t341 -119q403 0 403 464v576q0 68 -35 99q-28 26 -98 38q-55 10 -55 37q0 31 16 36q6 2 47 1q278 -11 383 0q40 4 44 -16q1 -7 1 -21zM1077 1751q0 -19 -22 -53q-119 -145 -256 -264q-21 -18 -54 2q-23 14 -12 28q59 79 109 200
q47 113 59 126q27 29 49 29q40 0 85 -26q42 -25 42 -42z" />
    <glyph glyph-name="Ucircumflex" unicode="&#xdb;" horiz-adv-x="1673" 
d="M1589 1282q0 -20 -45 -31q-78 -18 -99 -36q-28 -25 -28 -93v-573q0 -275 -143 -424q-147 -154 -426 -154q-590 0 -590 555v600q0 95 -111 115q-38 7 -46.5 13t-8.5 24q0 31 15 36q7 3 47 1q269 -14 411 0q30 3 36.5 -3t6.5 -34q0 -21 -43 -31q-84 -18 -97 -26
q-32 -20 -32 -82v-578q0 -255 106 -374t341 -119q403 0 403 464v576q0 68 -35 99q-28 26 -98 38q-55 10 -55 37q0 31 16 36q6 2 47 1q278 -11 383 0q40 4 44 -16q1 -7 1 -21zM1106 1464q11 -14 -12 -28q-35 -21 -54 -6q-119 94 -205 192q-69 -80 -204 -192q-19 -16 -54 6
q-23 14 -12 28q154 195 221 326q17 25 49 25q34 0 50 -25q56 -113 221 -326z" />
    <glyph glyph-name="Ugrave" unicode="&#xd9;" horiz-adv-x="1673" 
d="M1589 1282q0 -20 -45 -31q-78 -18 -99 -36q-28 -25 -28 -93v-573q0 -275 -143 -424q-147 -154 -426 -154q-590 0 -590 555v600q0 95 -111 115q-38 7 -46.5 13t-8.5 24q0 31 15 36q7 3 47 1q269 -14 411 0q30 3 36.5 -3t6.5 -34q0 -21 -43 -31q-84 -18 -97 -26
q-32 -20 -32 -82v-578q0 -255 106 -374t341 -119q403 0 403 464v576q0 68 -35 99q-28 26 -98 38q-55 10 -55 37q0 31 16 36q6 2 47 1q278 -11 383 0q40 4 44 -16q1 -7 1 -21zM946 1464q11 -14 -12 -28q-33 -20 -54 -2q-137 119 -256 264q-22 34 -22 53q0 17 43.5 42.5
t83.5 25.5q22 0 49 -29q12 -13 59 -126q50 -121 109 -200z" />
    <glyph glyph-name="dotlessi" unicode="&#x131;" horiz-adv-x="598" 
d="M553 25q-5 -29 -24 -33q-5 -1 -48 2q-149 10 -293 -4q-39 -4 -49 3t-10 32q0 23 53 38q58 17 58 111v262q0 79 -16 111q-22 44 -91 67q-31 11 -31 33q0 29 45 43q84 26 149 69q52 36 64 36q40 0 39 -52q-4 -262 -4 -534q0 -65 19 -93q21 -31 80 -44q65 -15 59 -47z" />
    <glyph glyph-name="circumflex" unicode="&#x2c6;" 
d="M760 952q11 -14 -12 -28q-35 -21 -54 -6q-119 94 -205 192q-69 -80 -204 -192q-19 -16 -54 6q-23 14 -12 28q154 195 221 326q17 25 49 25q34 0 50 -25q56 -113 221 -326z" />
    <glyph glyph-name="tilde" unicode="&#x2dc;" 
d="M838 1176q-80 -106 -107 -138q-51 -59 -104 -59q-29 0 -148 35t-131 35q-25 0 -53 -19l-94 -82q-14 -12 -45 15q-25 20 -11 30q65 91 105 137q53 62 104 62q29 0 149 -36t130 -36q29 0 53 21q55 46 96 82q12 10 43 -17q26 -17 13 -30z" />
    <glyph glyph-name="macron" unicode="&#xaf;" 
d="M795 1096q0 -48 -19 -52q-183 -38 -442 -38q-44 0 -125 4q-25 1 -25 39q0 46 19 51q175 41 442 41q49 0 125 -4q25 -2 25 -41z" />
    <glyph glyph-name="macron" unicode="&#x2c9;" 
d="M795 1096q0 -48 -19 -52q-183 -38 -442 -38q-44 0 -125 4q-25 1 -25 39q0 46 19 51q175 41 442 41q49 0 125 -4q25 -2 25 -41z" />
    <glyph glyph-name="breve" unicode="&#x2d8;" 
d="M766 1208q-66 -274 -277 -274q-112 0 -173 56q-67 62 -103 216q-2 20 23 23q40 4 51 -17q72 -141 202 -141q134 0 203 141q11 23 51 19q26 -3 23 -23z" />
    <glyph glyph-name="dotaccent" unicode="&#x2d9;" 
d="M594 1065q0 -55 -32 -92t-79 -37q-98 0 -98 111q0 51 34 86.5t81 35.5q94 0 94 -104z" />
    <glyph glyph-name="ring" unicode="&#x2da;" 
d="M692 1096q0 -85 -59 -144t-144 -59q-84 0 -143 59t-59 144t59 146t143 61q85 0 144 -61t59 -146zM610 1096q0 56 -34.5 93.5t-86.5 37.5q-51 0 -85.5 -37.5t-34.5 -93.5q0 -57 34.5 -93t85.5 -36q52 0 86.5 36t34.5 93z" />
    <glyph glyph-name="cedilla" unicode="&#xb8;" 
d="M680 -233q0 -154 -385 -164q-11 -1 -15 21q-5 23 5 24q235 29 235 108q0 66 -168 99q-29 5 -10 32q15 21 100 152h90q-41 -58 -67 -102q-12 -21 14 -27q201 -48 201 -143z" />
    <glyph glyph-name="hungarumlaut" unicode="&#x2dd;" 
d="M805 1239q0 -20 -19 -53q-108 -148 -233 -264q-16 -19 -45 2q-22 15 -12 28q53 79 99 200q43 113 54 126q24 29 41 29q37 0 76 -25.5t39 -42.5zM453 1239q0 -16 -21 -53q-105 -143 -231 -264q-19 -18 -47 2q-22 15 -13 28q54 79 100 200q42 113 54 126q25 29 41 29
q37 0 77 -25.5t40 -42.5z" />
    <glyph glyph-name="ogonek" unicode="&#x2db;" 
d="M651 -352q11 -4 6 -25q-4 -21 -14 -20q-289 24 -289 176q0 137 168 260h82q-104 -108 -104 -213q0 -124 151 -178z" />
    <glyph glyph-name="caron" unicode="&#x2c7;" 
d="M760 1255q-139 -176 -221 -325q-14 -25 -50 -25t-49 25q-65 124 -221 325q-11 15 12 29q31 19 54 6q114 -92 204 -192q79 87 205 192q18 15 54 -6q23 -14 12 -29z" />
    <glyph glyph-name="Lslash" unicode="&#x141;" horiz-adv-x="1192" 
d="M1124 250q-34 -128 -34 -240q0 -19 -64 -16q-158 8 -391 8q-248 0 -442 -10q-29 -2 -36 4.5t-7 30.5q0 26 43 30q98 10 98 105v923q0 70 -19 104q-23 40 -88 62q-39 14 -34 45q3 22 13 26t52 -1q146 -16 348 2q36 3 41 2q20 -3 23 -27q3 -27 -13 -37q-6 -4 -41 -12
q-70 -16 -88 -36.5t-18 -86.5v-895q0 -84 56.5 -114.5t205.5 -30.5q142 0 210.5 36.5t111.5 137.5q16 40 49 27q32 -8 24 -37zM750 803q14 -43 -7 -53q-145 -77 -557 -322q-34 -21 -43 8q-13 46 -9 67q3 15 13 21q183 102 558 322q9 5 14 5q14 0 31 -48z" />
    <glyph glyph-name="lslash" unicode="&#x142;" horiz-adv-x="584" 
d="M573 29q0 -40 -45 -35q-138 13 -342 -4q-41 -4 -50.5 2t-9.5 33q0 24 54.5 40.5t54.5 98.5v905q0 81 -23.5 119t-82.5 59q-31 11 -31 31q0 30 45 45q68 22 141 68q60 36 76 36q37 0 37 -51q0 4 -4 -100q-3 -99 -2 -195l4 -893q0 -61 30 -88.5t103 -36.5q45 -5 45 -34z
M555 702q14 -42 -6 -53q-265 -142 -404 -231q-34 -22 -43 8q-21 75 4 88q65 33 404 231q9 6 15 6q13 0 30 -49z" />
    <glyph glyph-name="Scaron" unicode="&#x160;" horiz-adv-x="1190" 
d="M1030 348q0 -169 -124 -271q-129 -106 -353 -106q-295 0 -346 109q-31 66 -62 168q-13 47 19 61q40 18 63 -16q85 -126 171 -179q83 -51 194 -51q278 0 278 222q0 87 -61 148q-59 57 -244 157q-234 126 -308 198q-91 89 -91 220q0 139 116.5 237t297.5 98q128 0 249 -32
q93 -25 105 -64q25 -81 33 -200q2 -43 -29 -48q-39 -6 -55 27q-62 125 -141 176q-73 47 -191 47q-105 0 -166 -49t-61 -139q0 -84 60 -145q57 -57 210 -134q236 -118 325 -200q111 -101 111 -234zM840 1783q-139 -176 -221 -325q-14 -25 -50 -25t-49 25q-65 124 -221 325
q-11 15 12 29q31 19 54 6q114 -92 204 -192q79 87 205 192q18 15 54 -6q23 -14 12 -29z" />
    <glyph glyph-name="scaron" unicode="&#x161;" horiz-adv-x="811" 
d="M707 215q0 -106 -81.5 -168.5t-222.5 -62.5q-94 0 -188 20q-81 18 -94 33q-8 14 -8 137q0 53 24 55q24 3 41 -26q75 -131 242 -131q141 0 141 98q0 43 -32 72q-35 33 -136 77q-146 65 -195 114q-53 52 -53 140q0 108 83 168q77 58 206 58q81 0 148 -13q72 -13 75 -32
q8 -56 33 -162q3 -13 -28 -21q-33 -7 -44 11q-79 129 -200 129q-137 0 -137 -88q0 -49 37 -78q33 -25 155 -78q128 -55 174 -99q60 -57 60 -153zM709 1255q-139 -176 -221 -325q-14 -25 -50 -25t-49 25q-65 124 -221 325q-11 15 12 29q31 19 54 6q114 -92 204 -192
q79 87 205 192q18 15 54 -6q23 -14 12 -29z" />
    <glyph glyph-name="Zcaron" unicode="&#x17d;" horiz-adv-x="1399" 
d="M1270 309q4 -183 -29 -307q-6 -23 -61 -18q-211 18 -482 18q-391 0 -520 -10q-55 -5 -67 14q-11 24 18 62q487 624 823 1114q13 19 13 25q0 16 -88 16h-244q-194 0 -278 -57q-67 -45 -122 -179q-16 -40 -49 -26q-32 7 -24 36q35 140 35 306q0 22 63 18q215 -14 500 -14
q276 0 430 10q52 3 59 -12q9 -19 -18 -54q-452 -572 -807 -1085q-18 -26 -18 -40q0 -23 55 -28q133 -10 344 -10q213 0 288 48q64 41 107 179q12 38 47 29q24 -6 25 -35zM955 1767q-139 -176 -221 -325q-14 -25 -50 -25t-49 25q-65 124 -221 325q-11 15 12 29q31 19 54 6
q114 -92 204 -192q79 87 205 192q18 15 54 -6q23 -14 12 -29z" />
    <glyph glyph-name="zcaron" unicode="&#x17e;" horiz-adv-x="967" 
d="M895 158q-13 -14 -94 -224q-10 -25 -43 -18q-30 6 -23 41q6 27 -49 35q-105 14 -565 14q-27 0 -27 38q0 8 4 11q219 223 539 557q12 14 12 20q0 7 -20 7q-11 0 -273 -6q-96 -2 -143 -55q-49 -56 -74 -48q-31 11 -16 35q19 30 98 236q10 24 35 24q31 0 41 -22
q11 -25 86 -29q150 -7 448 -10q13 0 24 -15.5t11 -27.5q0 -4 -2 -6q-238 -242 -540 -547q-14 -14 -14 -21q1 -10 32 -10q274 0 332 2q87 3 139 28t55 25q7 0 17 -4q29 -9 10 -30zM791 1255q-139 -176 -221 -325q-14 -25 -50 -25t-49 25q-65 124 -221 325q-11 15 12 29
q31 19 54 6q114 -92 204 -192q79 87 205 192q18 15 54 -6q23 -14 12 -29z" />
    <glyph glyph-name="brokenbar" unicode="&#xa6;" horiz-adv-x="545" 
d="M322 633q0 -25 -50 -25q-49 0 -49 25v919q3 25 51 25q20 0 32 -2q16 -4 16 -23v-919zM322 -330q0 -24 -50 -24q-49 0 -49 24v779q3 24 51 24q20 0 32 -2q16 -4 16 -22v-779z" />
    <glyph glyph-name="Eth" unicode="&#xd0;" horiz-adv-x="1647" 
d="M1522 682q0 -348 -230 -528q-215 -166 -598 -166q-32 0 -145 6t-174 6q-82 0 -182 -8q-43 -4 -43 35q0 26 43 30q98 10 98 107v958q0 54 -22 73q-18 15 -79 28q-51 10 -62 17t-13 30q-3 24 21 31q5 1 44 4q215 14 570 14q345 0 555 -166q217 -172 217 -471zM1313 655
q0 580 -596 580h-140q-110 -10 -110 -61v-928q0 -98 52 -131t208 -33q586 0 586 573zM764 702q-21 -74 -47 -73q-230 4 -250 4q-135 -1 -324 -4q-21 -1 -23 21q-1 8 5 38q9 43 33 43q25 0 157 -2t152 -2q184 0 264 4q25 1 31.5 -5.5t1.5 -23.5z" />
    <glyph glyph-name="eth" unicode="&#xf0;" horiz-adv-x="1028" 
d="M934 461q0 -232 -126 -357q-118 -116 -319 -116q-191 0 -302 106q-107 104 -107 275q0 178 124 299q120 116 285 116q140 0 234 -71q13 -10 18 -5q6 6 0 25q-60 202 -241 402q-47 -46 -138 -142q-16 -18 -27 -18q-8 0 -16 14q-42 65 -20 86l131 127q-90 84 -170 131
q-66 40 -61 60q16 43 28 39q152 -56 283 -150q49 47 139 141q11 10 17 10q13 0 38.5 -38t8.5 -54q-58 -53 -125 -120q346 -305 346 -760zM762 342q0 157 -76 255q-74 95 -188 95q-106 0 -173 -74.5t-67 -181.5q0 -172 78 -268q72 -88 188 -88q110 0 174 73t64 189z" />
    <glyph glyph-name="Yacute" unicode="&#xdd;" horiz-adv-x="1575" 
d="M1516 1290q0 -34 -64 -53q-73 -22 -162 -137q-175 -228 -218 -286q-101 -138 -177 -263v-354q0 -71 27 -97q22 -20 102 -39q60 -13 53 -49q-4 -23 -24 -25q-2 -1 -41 3q-199 17 -391 2q-60 -11 -66 24q-6 33 35 43q82 22 106.5 53.5t24.5 112.5v273q-136 266 -451 637
q-81 95 -164 112q-49 10 -49 29q0 46 43 41q181 -22 441 18q36 6 45 4q16 -5 16 -34q0 -22 -51 -41q-87 -33 -87 -71q0 -19 21 -48q127 -170 332 -488q12 -18 19 -18q8 0 20 18q44 66 150.5 216t158.5 229q26 38 26 66q0 53 -91 83q-49 17 -45 47q4 35 67 27q197 -24 351 -4
q43 5 43 -31zM1112 1720q0 -19 -22 -53q-119 -145 -256 -264q-21 -18 -54 2q-23 14 -12 28q59 79 109 200q47 113 59 126q27 29 49 29q40 0 85 -26q42 -25 42 -42z" />
    <glyph glyph-name="yacute" unicode="&#xfd;" horiz-adv-x="1100" 
d="M1036 748q0 -27 -43.5 -47t-66.5 -76q-102 -244 -264 -559q-37 -67 -102.5 -197.5t-199.5 -341.5q-44 -70 -120 -57q-66 10 -110.5 37.5t-39.5 52.5q9 42 60 47q88 8 115 16q33 11 57 41q51 66 125 197q69 122 69 137q0 10 -125 241q-169 312 -205 379q-33 64 -71 74
q-64 17 -64 43q0 38 41 35q211 -16 387 12q31 5 31 -20q0 -35 -49 -47q-74 -18 -74 -65q0 -9 4 -19q49 -115 132 -277q78 -153 85 -153q9 0 66 125q66 146 123 307q1 4 1 9q0 48 -48 67q-56 21 -56 36q0 34 35 29q143 -22 266 -4q29 4 35 0t6 -22zM862 1239q0 -19 -22 -53
q-119 -145 -256 -264q-21 -18 -54 2q-23 14 -12 28q59 79 109 200q47 113 59 126q27 29 49 29q40 0 85 -26q42 -25 42 -42z" />
    <glyph glyph-name="Thorn" unicode="&#xde;" horiz-adv-x="1223" 
d="M1141 700q0 -176 -156 -282q-149 -101 -385 -101q-19 0 -68.5 3.5t-54.5 3.5q-10 0 -10 -31v-129q0 -47 19.5 -61t105.5 -29q55 -10 55 -39q0 -25 -9 -31t-50 -4q-181 8 -395 -8q-43 -3 -43 35q0 26 43 30q98 10 98 107v958q0 95 -111 117q-55 11 -55 35q0 31 15 37
q10 4 46 -2q68 -12 383 2q52 2 57 -14q3 -7 3 -21q0 -28 -56 -39q-65 -14 -79 -22q-27 -17 -27 -68v-80q0 -38 39 -35q71 6 166 6q213 0 338 -86q131 -90 131 -252zM946 678q0 161 -82 227q-78 64 -260 64q-82 0 -109.5 -24t-27.5 -85v-442q0 -29 143 -29q154 0 245 77
t91 212z" />
    <glyph glyph-name="thorn" unicode="&#xfe;" horiz-adv-x="1026" 
d="M946 440q0 -196 -127 -330q-122 -128 -291 -128q-100 0 -194 36q-10 4 -10 -49v-301q0 -73 118 -94q56 -10 70 -18.5t14 -28.5q0 -34 -45 -31q-210 14 -368 -10q-34 -5 -42 0t-8 27q0 17 58 41q31 12 40 30.5t9 65.5l4 839q0 116 -2 336.5t-2 292.5t-22 99q-20 24 -87 38
q-26 9 -26 33q0 21 39 35q56 20 139 67q66 37 82 37q31 0 31 -51q0 -4 -3 -104q-2 -94 -1 -191l2 -346q0 -49 34 -28q120 69 250 69q150 0 244 -92.5t94 -243.5zM786 360q0 137 -76 225q-72 83 -175 83q-71 0 -140 -37t-69 -78v-377q0 -27 75 -57q83 -33 179 -33
q98 0 152 73.5t54 200.5z" />
    <glyph glyph-name="minus" unicode="&#xad;" horiz-adv-x="1083" 
d="M983 418q0 -20 -18 -38t-41 -18h-803q-19 0 -19 27q0 45 58 45h805q18 0 18 -16z" />
    <glyph glyph-name="minus" unicode="&#x2212;" horiz-adv-x="1083" 
d="M983 418q0 -20 -18 -38t-41 -18h-803q-19 0 -19 27q0 45 58 45h805q18 0 18 -16z" />
    <glyph glyph-name="multiply" unicode="&#xd7;" horiz-adv-x="1083" 
d="M153 762q14 13 39 13q26 0 42 -16l309 -309l334 333q13 13 25 2q14 -14 14 -38q0 -27 -17 -43l-305 -305l331 -331q13 -13 -6 -32q-14 -13 -29 -13q-21 0 -43 22l-304 303l-335 -335q-13 -13 -32 6q-13 14 -13 30q0 20 22 42l308 308l-338 338q-13 13 -2 25z" />
    <glyph glyph-name="onesuperior" unicode="&#xb9;" horiz-adv-x="711" 
d="M602 504q0 -26 -16 -31q-8 -3 -41 -2q-241 6 -371 -2q-45 -3 -45 33q0 22 43 28q89 14 103 19q26 10 26 43v588q0 16 -20 16q-61 0 -125 -14q-37 -9 -47 18q-15 36 24 45q145 33 270 90q19 6 29 6q33 0 33 -28q-12 -59 -12 -189v-524q0 -30 24 -43q18 -11 76 -21
q49 -8 49 -32z" />
    <glyph glyph-name="twosuperior" unicode="&#xb2;" horiz-adv-x="846" 
d="M760 627q-30 -54 -60 -152q-10 -34 -55 -22q-115 28 -547 28q-29 0 -29 37q0 14 7 21q298 247 382 345q81 95 81 191q0 61 -41 99q-46 42 -127 42q-105 0 -213 -69q-27 -17 -49 10q-21 26 10 53q137 121 297 121q132 0 211 -56q84 -60 84 -169q0 -110 -96 -216
q-84 -94 -332 -280q-13 -12 0 -12q116 -10 159 -10q125 0 173 13q37 11 69 46q24 27 49 23q46 -17 27 -43z" />
    <glyph glyph-name="threesuperior" unicode="&#xb3;" horiz-adv-x="786" 
d="M678 764q0 -146 -140 -230q-128 -77 -325 -77q-57 0 -117 8q-31 4 -28 35q7 35 43 32q76 -6 108 -6q129 0 209 52q84 54 84 151q0 158 -211 158h-41q-22 0 -35 24q-14 22 23 37q136 55 180 88q53 39 53 94q0 109 -147 109q-108 0 -182 -35q-26 -12 -50 12q-17 26 17 45
q112 66 252 66q128 0 203 -43.5t75 -122.5q0 -113 -180 -196q209 -35 209 -201z" />
    <glyph glyph-name="onehalf" unicode="&#xbd;" horiz-adv-x="2048" 
d="M602 504q0 -26 -16 -31q-8 -3 -41 -2q-241 6 -371 -2q-45 -3 -45 33q0 22 43 28q89 14 103 19q26 10 26 43v588q0 16 -20 16q-61 0 -125 -14q-37 -9 -47 18q-15 36 24 45q145 33 270 90q19 6 29 6q33 0 33 -28q-12 -59 -12 -189v-524q0 -30 24 -43q18 -11 76 -21
q49 -8 49 -32zM1521 1294q-343 -426 -1040 -1323q-21 -26 -62 2q-30 22 -30 32q0 7 6 13q127 160 1040 1325q19 24 62 -2q39 -23 24 -47zM1921 154q-30 -54 -60 -152q-10 -34 -55 -22q-115 28 -547 28q-29 0 -29 37q0 14 7 21q298 247 382 345q81 95 81 191q0 61 -41 99
q-46 42 -127 42q-105 0 -213 -69q-27 -17 -49 10q-21 26 10 53q137 121 297 121q132 0 211 -56q84 -60 84 -169q0 -110 -96 -216q-84 -94 -332 -280q-13 -12 0 -12q116 -10 159 -10q125 0 173 13q37 11 69 46q24 27 49 23q46 -17 27 -43z" />
    <glyph glyph-name="onequarter" unicode="&#xbc;" horiz-adv-x="2048" 
d="M602 504q0 -26 -16 -31q-8 -3 -41 -2q-241 6 -371 -2q-45 -3 -45 33q0 22 43 28q89 14 103 19q26 10 26 43v588q0 16 -20 16q-61 0 -125 -14q-37 -9 -47 18q-15 36 24 45q145 33 270 90q19 6 29 6q33 0 33 -28q-12 -59 -12 -189v-524q0 -30 24 -43q18 -11 76 -21
q49 -8 49 -32zM1521 1294q-343 -426 -1040 -1323q-21 -26 -62 2q-30 22 -30 32q0 7 6 13q127 160 1040 1325q19 24 62 -2q39 -23 24 -47zM1857 377q15 -2 15 -21q0 -24 -19 -82q-17 -52 -51 -49q-42 2 -119 6q0 -63 2 -198q0 -23 -82 -43q-25 -6 -40 -6q-26 0 -26 18
q0 41 3.5 124.5t3.5 104.5q-47 4 -449 15q-24 0 -24 38q0 14 8 21q434 415 518 551q13 21 88 -5q14 -6 6 -42t-8 -107v-383q39 0 61 5q51 9 74 38q8 20 39 15zM1542 326v342q-79 -92 -310 -336z" />
    <glyph glyph-name="threequarters" unicode="&#xbe;" horiz-adv-x="2048" 
d="M1558 1294q-343 -426 -1040 -1323q-21 -26 -62 2q-30 22 -30 32q0 7 6 13q127 160 1040 1325q19 24 62 -2q39 -23 24 -47zM678 764q0 -146 -140 -230q-128 -77 -325 -77q-57 0 -117 8q-31 4 -28 35q7 35 43 32q76 -6 108 -6q129 0 209 52q84 54 84 151q0 158 -211 158
h-41q-22 0 -35 24q-14 22 23 37q136 55 180 88q53 39 53 94q0 109 -147 109q-108 0 -182 -35q-26 -12 -50 12q-17 26 17 45q112 66 252 66q128 0 203 -43.5t75 -122.5q0 -113 -180 -196q209 -35 209 -201zM1909 377q15 -2 15 -21q0 -24 -19 -82q-17 -52 -51 -49
q-42 2 -119 6q0 -63 2 -198q0 -23 -82 -43q-25 -6 -40 -6q-26 0 -26 18q0 41 3.5 124.5t3.5 104.5q-47 4 -449 15q-24 0 -24 38q0 14 8 21q434 415 518 551q13 21 88 -5q14 -6 6 -42t-8 -107v-383q39 0 61 5q51 9 74 38q8 20 39 15zM1594 326v342q-79 -92 -310 -336z" />
    <glyph glyph-name="glyph247" horiz-adv-x="1647" 
d="M764 702q-21 -74 -47 -73q-230 4 -250 4q-135 -1 -324 -4q-21 -1 -23 21q-1 8 5 38q9 43 33 43q25 0 157 -2t152 -2q184 0 264 4q25 1 31.5 -5.5t1.5 -23.5z" />
    <glyph glyph-name="glyph248" horiz-adv-x="1192" 
d="M750 803q14 -43 -7 -53q-145 -77 -557 -322q-34 -21 -43 8q-13 46 -9 67q3 15 13 21q183 102 558 322q9 5 14 5q14 0 31 -48z" />
    <glyph glyph-name="glyph249" horiz-adv-x="625" 
d="M555 702q14 -42 -6 -53q-265 -142 -404 -231q-34 -22 -43 8q-21 75 4 88q65 33 404 231q9 6 15 6q13 0 30 -49z" />
    <glyph glyph-name="glyph250" horiz-adv-x="434" 
d="M780 1294q-343 -426 -1040 -1323q-21 -26 -62 2q-30 22 -30 32q0 7 6 13q127 160 1040 1325q19 24 62 -2q39 -23 24 -47z" />
    <glyph glyph-name="glyph251" horiz-adv-x="1694" 
d="M1454 1364q-304 -405 -1163 -1507q-13 -16 -48.5 11.5t-21.5 45.5q41 52 587 758q538 697 576 747q14 18 48.5 -10.5t21.5 -44.5z" />
    <glyph glyph-name="glyph252" horiz-adv-x="1018" 
d="M899 813l-711 -922q-12 -16 -43 15q-34 21 -20 39q236 302 709 919q13 17 44 -8.5t21 -42.5z" />
    <glyph glyph-name="glyph253" horiz-adv-x="1317" 
d="M1423 1364q0 -42 -38 -98t-60 -56q-27 0 -57 27q-63 45 -111 45q-190 0 -190 -266v-215q0 -50 86 -43l127 10q75 6 82 -24q2 -10 2 -29q0 -41 -20 -51q-13 -7 -62 -7h-127q-85 0 -88 -36q-2 -21 0 -435q0 -56 52 -80q38 -19 130 -26q36 -3 43.5 -8.5t7.5 -32.5
q0 -31 -8.5 -37t-42.5 -4q-208 11 -377 -6q-46 -5 -56 0q-9 5 -9 35q0 24 55 45q51 19 51 96v389q0 63 -18 84q-13 15 -52 18q-114 10 -297 0q-68 -3 -71 -38q-2 -21 0 -435q0 -53 33 -76q29 -21 106 -32q35 -5 43 -12t8 -33q0 -28 -11 -34q-6 -3 -40 -1q-194 10 -354 -6
q-46 -5 -56 0t-10 35q0 25 58 41q69 19 69 100v389q0 61 -19 85q-13 16 -50 28q-58 18 -58 57q0 27 24 34q8 2 50 3q36 1 45 16q6 11 6 54v49q0 219 139 357t351 138q123 0 213 -51q42 -24 75 -2q140 94 336 94q90 0 90 -55zM836 1137q8 46 -39 88q-61 53 -154 53
q-268 0 -268 -381v-96q0 -31 34 -38q18 -4 52 -5q105 -3 303 10q28 2 37.5 13.5t9.5 52.5q0 166 25 303z" />
    <glyph glyph-name="glyph254" horiz-adv-x="1765" 
d="M1720 25q-5 -29 -25 -33q-5 -1 -48 2q-148 10 -291 -4q-41 -4 -50.5 1t-9.5 32q0 28 27 36q52 16 68 37t16 78v373q0 61 -28 85.5t-101 24.5h-223q-85 0 -88 -36q-2 -21 0 -435q0 -53 32 -76q29 -21 107 -32q35 -5 43 -12t8 -33q0 -28 -11 -34q-7 -3 -40 -1
q-135 7 -334 -6q-45 -3 -49 -2q-16 5 -16 37q0 24 55 45q51 19 51 96v389q0 63 -18 84q-13 15 -52 18q-114 10 -297 0q-68 -3 -71 -38q-2 -21 0 -435q0 -53 33 -76q29 -21 106 -32q35 -5 43 -12t8 -33q0 -28 -11 -34q-6 -3 -40 -1q-194 10 -354 -6q-46 -5 -56 0t-10 35
q0 25 58 41q69 19 69 100v389q0 61 -19 85q-13 16 -50 28q-58 18 -58 57q0 27 24 34q8 2 50 3q36 1 45 16q6 11 6 54v49q0 219 139 357t351 138q123 0 213 -51q43 -25 75 -2q133 94 303 94q106 0 188.5 -37.5t82.5 -87.5q0 -41 -52 -92q-49 -47 -79 -47q-40 0 -94 74
q-67 90 -111 90q-268 0 -268 -381v-137q0 -46 86 -43l325 10q38 1 85 14t65 13q40 0 39 -52q-6 -196 -6 -534q0 -66 21 -95t79 -42q65 -15 59 -47zM836 1137q8 46 -39 88q-61 53 -154 53q-268 0 -268 -381v-96q0 -31 34 -38q18 -4 52 -5q105 -3 303 10q28 2 37.5 13.5
t9.5 52.5q0 166 25 303z" />
    <glyph glyph-name="glyph255" horiz-adv-x="1810" 
d="M1782 29q0 -40 -47 -35q-137 13 -340 -4q-41 -4 -50.5 2t-9.5 33q0 24 54.5 40.5t54.5 98.5v817q0 156 -53 228.5t-177 72.5q-247 0 -247 -289v-192q0 -50 86 -43l127 10q75 6 82 -24q2 -10 2 -29q0 -41 -20 -51q-13 -7 -62 -7h-127q-85 0 -88 -36q-2 -21 0 -435
q0 -93 161 -106q35 -3 41 -7q11 -6 11 -34t-8 -35.5t-44 -5.5q-203 9 -356 -6q-46 -5 -56 0q-9 5 -9 35q0 24 55 45q51 19 51 96v389q0 63 -18 84q-13 15 -52 18q-114 10 -297 0q-68 -3 -71 -38q-2 -21 0 -435q0 -53 33 -76q29 -21 106 -32q35 -5 43 -12t8 -33
q0 -28 -11 -34q-6 -3 -40 -1q-194 10 -354 -6q-46 -5 -56 0t-10 35q0 25 58 41q69 19 69 100v389q0 61 -19 85q-13 16 -50 28q-58 18 -58 57q0 27 24 34q8 2 50 3q36 1 45 16q6 11 6 54v49q0 219 139 357t351 138q122 0 219 -55q41 -23 76 -2q138 84 288 84q76 0 174 -16
q21 -4 55.5 17t45.5 21q39 0 39 -51q0 4 -5 -122q-4 -122 -4 -216l7 -850q0 -64 34 -92q28 -23 97 -33q47 -5 47 -34zM836 1137q8 46 -39 88q-61 53 -154 53q-268 0 -268 -381v-96q0 -31 34 -38q18 -4 52 -5q105 -3 303 10q28 2 37.5 13.5t9.5 52.5q0 166 25 303z" />
    <glyph glyph-name="glyph256" horiz-adv-x="1624" 
d="M1501 655q0 -283 -202.5 -484.5t-485.5 -201.5q-284 0 -486 201t-202 485q0 283 202 485.5t486 202.5q283 0 485.5 -202.5t202.5 -485.5zM1432 655q0 259 -181 443t-438 184q-258 0 -438 -183.5t-180 -443.5t179.5 -442t438.5 -182q258 0 438.5 182.5t180.5 441.5z
M1133 831q0 -109 -93 -173q-87 -60 -223 -60q-37 0 -47 2t-10 -12v-189q0 -21 9.5 -27.5t51.5 -13.5q37 -6 37 -30q0 -22 -10 -27q-6 -3 -33 -2q-122 5 -225 -6q-21 0 -27 7t-6 24q0 22 31 26q47 6 47 49v527q0 41 -53 53q-39 9 -39 31t7 28q9 6 40 0q36 -6 114 -4
q136 4 152 4q123 0 197 -52q80 -55 80 -155zM997 817q0 89 -42 126.5t-136 37.5q-59 0 -59 -49v-260q0 -15 63 -15q174 0 174 160z" />
    <glyph glyph-name="glyph257" horiz-adv-x="496" 
d="M342 815q-51 -261 -51 -397q0 -82 -43 -107q-16 -9 -24 -9q-15 0 -15 38q0 173 -59 467q-6 27 -6 43q0 55 106 76q30 6 49 6q50 0 50 -56q0 -23 -7 -61zM350 96q0 -50 -33.5 -85.5t-76.5 -35.5q-103 0 -103 109q0 48 35 84.5t78 36.5q100 0 100 -109z" />
    <glyph glyph-name="glyph258" horiz-adv-x="1147" 
d="M1061 815q-18 -83 -64 -78q-41 5 -190 21q-16 -111 -41 -258l219 -25q8 -1 10 -8q5 -13 -4 -55q-18 -84 -63 -78q-41 5 -185 20q-28 -186 -61 -387q-3 -16 -29 -6q-45 25 -39 64l54 337q-88 10 -277 31l-67 -426q-3 -15 -31 -6q-43 26 -37 64q18 114 57 376
q-11 2 -217 23q-28 3 -12 80t61 71q82 -9 193 -24q6 42 19.5 127t19.5 127q-66 7 -211 22q-28 3 -12 80q15 78 61 72l184 -23q40 246 58 379q6 26 39 15q39 -19 32 -62q-15 -106 -51 -342q17 -2 275 -33q41 258 63 422q6 26 39 15q41 -19 35 -62q-32 -222 -60 -385l226 -24
q7 -1 10 -9q5 -13 -4 -55zM729 766q-87 10 -274 31q-8 -42 -21 -128t-20 -128q95 -12 276 -33q13 85 39 258z" />
    <glyph glyph-name="glyph259" horiz-adv-x="1051" 
d="M928 346q0 -161 -111.5 -261.5t-288.5 -100.5h-14q-7 -148 -12 -197q-1 -11 -8 -12q-20 -2 -41.5 22t-20.5 47q3 43 8 144q-327 27 -327 233q0 90 73 90q46 0 68 -22t39 -78q36 -119 153 -135q12 160 31 514q-174 91 -241.5 175t-67.5 210q0 153 102 251q98 94 250 99
q4 53 10 150q2 26 33 14q44 -18 41 -62q-2 -30 -6 -104q139 -12 223 -73.5t84 -151.5q0 -88 -84 -88q-72 0 -96 90q-30 115 -133 131l-29 -469q202 -99 279 -183q86 -93 86 -233zM516 1235q-102 -2 -157.5 -54.5t-55.5 -136.5q0 -76 35 -126q41 -60 151 -121q10 153 27 438z
M793 276q0 92 -48 147q-50 60 -196 132q-10 -173 -29 -485h23q111 0 180.5 55.5t69.5 150.5z" />
    <glyph glyph-name="glyph260" horiz-adv-x="1638" 
d="M1546 389q0 -178 -78 -291q-80 -118 -213 -118q-121 0 -201.5 110t-80.5 275q0 183 87 296q83 107 206 107q124 0 202 -105.5t78 -273.5zM1274 1286q-213 -327 -830 -1302q-11 -22 -49 6q-34 25 -24 41q286 450 829 1300q14 21 48.5 -5t25.5 -40zM666 952
q0 -177 -78 -291q-81 -118 -213 -118q-121 0 -202 110t-81 275q0 183 86 296q82 107 205 107q125 0 204 -105.5t79 -273.5zM1391 373q0 327 -127 327q-136 0 -136 -317q0 -334 136 -334q127 0 127 324zM510 936q0 328 -127 328q-135 0 -135 -318q0 -336 135 -336
q127 0 127 326z" />
    <glyph glyph-name="glyph261" horiz-adv-x="1133" 
d="M1077 84q13 -26 -10 -41q-78 -51 -152 -51q-125 0 -204 141q-129 -141 -305 -141q-145 0 -229.5 64t-84.5 180q0 187 230 294q-93 89 -93 181q0 93 71 154q68 59 165 59q88 0 147.5 -47t59.5 -125q0 -134 -148 -209q139 -91 234 -224q47 92 79 195q7 22 7 43q0 32 -62 53
q-23 9 -18 33q5 26 27 23q123 -23 225 -13q22 3 22 -26q0 -19 -22 -27q-84 -28 -96 -68q-57 -171 -119 -276q16 -26 28 -49q72 -133 136 -133q44 0 84 24q17 11 28 -14zM569 741q0 117 -104 117q-103 0 -103 -113q0 -78 105 -159q102 49 102 155zM676 193q-50 76 -158 186
q-19 19 -137 104q-133 -74 -133 -217q0 -91 56 -143q52 -47 132 -47q143 0 240 117z" />
    <glyph glyph-name="glyph262" horiz-adv-x="717" 
d="M659 -197q18 -12 -6 -45q-19 -26 -51 -6q-473 298 -473 692t473 693q34 21 51 -7q22 -34 6 -45q-352 -255 -352 -641q0 -385 352 -641z" />
    <glyph glyph-name="glyph263" horiz-adv-x="717" 
d="M588 444q0 -393 -473 -692q-34 -21 -52 6q-21 34 -6 45q353 255 353 641t-353 641q-17 13 6 45q20 27 52 7q473 -298 473 -693z" />
    <glyph glyph-name="glyph264" horiz-adv-x="819" 
d="M805 1085q-329 -616 -703 -1331q-12 -23 -55 2q-34 20 -34 33q0 6 3 12q193 367 703 1334q11 20 55 -2q41 -22 31 -48z" />
    <glyph glyph-name="glyph265" horiz-adv-x="1260" 
d="M1135 670q0 -284 -141 -485q-150 -214 -380 -214q-218 0 -353.5 182.5t-135.5 489.5q0 285 141 487q149 213 379 213q219 0 353 -181q137 -184 137 -492zM936 602q0 315 -92 485q-88 164 -244 164q-127 0 -201.5 -147.5t-74.5 -386.5q0 -318 91 -489q89 -165 244 -165
q128 0 203 149q74 146 74 390z" />
    <glyph glyph-name="glyph266" horiz-adv-x="772" 
d="M698 33q0 -25 -9.5 -31t-51.5 -4q-262 11 -490 -4q-35 -2 -41 11q-4 7 -4 24q0 22 45 30q118 22 145 37q36 19 36 76v940q0 43 -39 43q-75 0 -168 -22q-36 -9 -45 18q-14 42 20 51q196 52 361 146q18 10 30 10q33 0 29 -29q-14 -115 -14 -303v-840q0 -53 33 -77
q26 -18 108 -37q39 -9 47 -15t8 -24z" />
    <glyph glyph-name="glyph267" horiz-adv-x="1059" 
d="M971 231q-46 -102 -82 -245q-7 -28 -47 -17q-155 45 -725 45q-16 0 -21 22q-6 22 4 32q395 402 509 568q106 154 106 314q0 107 -60 174q-65 72 -180 72q-137 0 -285 -117q-22 -18 -40 13q-20 33 6 61q169 186 376 186q167 0 266 -84q105 -90 105 -258q0 -176 -118 -343
q-113 -160 -449 -470q-33 -30 8 -34q136 -15 223 -15q173 0 238 23q51 18 96 80q24 32 45 26q34 -13 25 -33z" />
    <glyph glyph-name="glyph268" horiz-adv-x="928" 
d="M825 451q0 -226 -180 -357q-165 -121 -418 -121q-80 0 -151 13q-32 5 -27 41q6 42 43 39q119 -13 144 -13q174 0 283 88q114 92 114 252q0 131 -83 203q-77 68 -208 68h-53q-21 -3 -33 26q-10 26 20 41q183 88 246 147q70 65 70 160q0 189 -207 189q-141 0 -244 -58
q-25 -14 -49 15q-16 24 19 49q139 100 323 100q161 0 255 -63q97 -67 97 -187q0 -105 -73 -183q-63 -69 -203 -138q145 -13 228 -91q87 -82 87 -220z" />
    <glyph glyph-name="glyph269" horiz-adv-x="1128" 
d="M1077 578q14 -3 14 -22q0 -26 -26 -126q-20 -73 -55 -70q-47 6 -170 11q0 -99 4 -328q0 -29 -101 -57q-42 -12 -57 -11q-17 2 -16 19q1 64 5 208q5 131 5 171q-45 3 -602 20q-14 1 -20 29q-5 28 8 43q567 657 682 874q4 10 22 10q27 0 76 -20q14 -4 13 -19q-4 -17 -7 -34
q-10 -67 -10 -172v-621q60 0 94 6q73 14 102 72q11 22 39 17zM676 492v593q-102 -149 -443 -583z" />
    <glyph glyph-name="glyph270" horiz-adv-x="942" 
d="M868 1376q-23 -54 -51 -166q-16 -66 -60 -66q-13 0 -40 5q-142 25 -371 14q-42 -2 -51 -43q-1 -6 -41 -211q289 -40 428 -142q152 -110 152 -310q0 -222 -176 -350q-164 -119 -420 -119q-97 0 -168 20q-28 8 -17 43q15 43 41 37q56 -12 168 -12q175 0 284 86
q113 90 113 241q0 154 -115 235t-380 118q-29 4 -25 39q27 192 64 462q5 38 63 39q136 4 338 13q134 6 176 61q29 38 48 38q11 0 27 -6q21 -9 13 -26z" />
    <glyph glyph-name="glyph271" horiz-adv-x="1104" 
d="M999 408q0 -192 -134 -318q-128 -119 -304 -119q-187 0 -308 118q-136 132 -136 370q0 290 202 542q181 224 463 353q19 8 35 -23q17 -32 -18 -53q-183 -109 -308 -265t-151 -304q107 84 260 84q171 0 282 -100q117 -106 117 -285zM813 375q0 146 -70 235.5t-190 89.5
q-110 0 -184 -80q-78 -85 -78 -221q0 -157 81 -250q75 -86 187 -86q107 0 178 81q76 86 76 231z" />
    <glyph glyph-name="glyph272" horiz-adv-x="1047" 
d="M969 1268q-55 -69 -240 -513q-158 -380 -289 -732q-9 -25 -196 -46q-35 -3 -35 17q0 3 2 6q259 391 549 1128q5 15 5 24q0 24 -36 24q-65 0 -270 -15q-222 -15 -320 -28q-33 -5 -33 12q0 19 48 117q16 31 43 84q10 20 22 20q26 0 41 -20q29 -39 115 -41q102 -3 573 -9
q37 0 21 -28z" />
    <glyph glyph-name="glyph273" horiz-adv-x="1057" 
d="M958 350q0 -167 -128 -272q-122 -101 -306 -101q-190 0 -308 93.5t-118 244.5q0 214 291 371q-235 126 -235 326q0 147 112 238q108 87 273 87q166 0 263 -77q101 -79 101 -220q0 -183 -235 -311q290 -155 290 -379zM756 1032q0 97 -56 156q-60 61 -165 61
q-107 0 -166.5 -57t-59.5 -150q0 -147 264 -268q183 95 183 258zM782 319q0 180 -299 322q-223 -120 -223 -307q0 -117 72 -191q75 -77 203 -77q106 0 173 60q74 67 74 193z" />
    <glyph glyph-name="glyph274" horiz-adv-x="1104" 
d="M987 854q0 -290 -202 -542q-181 -225 -463 -353q-19 -8 -35 23q-17 32 18 53q157 93 284 238q137 156 165 290q-97 -84 -250 -84q-166 0 -277 103q-123 113 -123 303q0 198 133 329q127 127 306 127q189 0 311 -121q133 -133 133 -366zM813 893q0 156 -72 253
q-75 101 -202 101q-113 0 -180.5 -90t-67.5 -231q0 -156 67 -253q71 -102 193 -102q112 0 184 81q78 87 78 241z" />
    <glyph glyph-name="glyph275" horiz-adv-x="655" 
d="M575 655q0 -100 -65 -152q-52 -42 -193 -81q-18 -3 -22 -25q-1 -2 -16 -75q-10 -28 -41 -39q-12 -5 -21 -5q-20 0 -20 31q0 139 -7 193q-6 57 43 57q148 0 205 26q47 22 47 72q0 66 -38 109q-42 47 -115 47q-38 0 -80 -51q-29 -35 -64 -35q-79 0 -79 117q0 33 43 57
q47 27 124 27q130 0 218 -87q81 -81 81 -186zM348 92q0 -50 -33.5 -85.5t-76.5 -35.5q-103 0 -103 109q0 48 35 84.5t78 36.5q100 0 100 -109z" />
    <glyph glyph-name="glyph276" horiz-adv-x="737" 
d="M694 -205q-1 -18 -8.5 -23t-38.5 -3q-241 15 -395 10q-46 -2 -59 7q-18 12 -15 52q17 244 17 602q0 365 -17 609q-3 40 15 51q13 9 59 8q157 -5 395 10q36 3 42 -7q4 -6 5 -19q2 -33 -28 -37q-86 -11 -256 -37q-48 -9 -63 -38q-8 -18 -9 -50q-4 -135 -4 -488
q0 -350 4 -485q1 -41 16 -61t56 -27q124 -22 256 -37q30 -3 28 -37z" />
    <glyph glyph-name="glyph277" horiz-adv-x="819" 
d="M803 -199q3 -6 3 -12q0 -13 -34 -33q-43 -25 -55 -2q-374 715 -703 1331q-10 26 32.5 48t53.5 2z" />
    <glyph glyph-name="glyph278" horiz-adv-x="737" 
d="M559 -162q3 -40 -12.5 -50.5t-61.5 -8.5q-161 5 -401 -10q-36 -3 -42 6q-4 6 -5 20q-2 33 29 37q86 11 256 37q47 8 62 38q8 17 9 50q4 135 4 487q0 351 -4 486q-1 41 -16 61t-55 27q-125 22 -256 37q-31 3 -29 37q1 18 8.5 23t38.5 3q243 -15 401 -10q46 1 59 -8
q18 -11 15 -51q-16 -244 -16 -603q0 -364 16 -608z" />
    <glyph glyph-name="glyph279" horiz-adv-x="1149" 
d="M1114 29q-6 -36 -37 -33q-190 16 -325 2q-42 -5 -45 20q-5 38 34 50q63 18 63 43q0 7 -5 16q-29 50 -86 168q-95 -8 -172 -8q-87 0 -172 10q-11 -21 -66 -137q-9 -19 -9 -30q0 -26 79 -54q39 -14 30 -47q-4 -29 -32 -27q-165 13 -287 -8q-29 -5 -33 31q-4 38 47 53
q55 16 95 92q254 488 313 707q8 29 78 47q21 5 41 -39q154 -371 338 -725q37 -72 127 -99q28 -8 24 -32zM678 371q-39 82 -127 272q-13 29 -25 0q-41 -105 -120 -270q65 -8 151 -8q66 0 121 6z" />
    <glyph glyph-name="glyph280" horiz-adv-x="997" 
d="M928 254q0 -128 -127 -198q-111 -62 -283 -62q-17 0 -110.5 4t-135.5 4q-79 0 -139 -10q-26 -5 -31 31q-3 31 31 43q54 18 71 36q23 23 23 74v539q0 54 -23 76q-18 17 -75 32q-37 10 -37 37q0 30 10 36q7 4 31 1q38 -4 121 -4q38 0 146.5 2t127.5 2q135 0 226 -48
q106 -56 106 -159q0 -140 -168 -192q-20 -7 0 -11q236 -44 236 -233zM674 680q0 145 -191 145q-48 0 -56 -1q-32 -7 -32 -36v-266h60q219 0 219 158zM739 240q0 102 -75 158q-67 48 -168 48q-70 0 -101 -6v-307q0 -65 135 -65q209 0 209 172z" />
    <glyph glyph-name="glyph281" horiz-adv-x="1096" 
d="M989 248q-16 -120 -38 -161t-113 -72q-105 -35 -248 -35q-211 0 -355 127q-149 132 -149 335q0 205 154 344q148 134 352 134q133 0 242 -27q127 -32 131 -66q12 -61 12 -186q0 -25 -51 -29q-34 -2 -45 25q-79 190 -301 190q-131 0 -215 -97q-86 -102 -86 -271t93 -276
q97 -109 259 -109q171 0 254 190q14 33 65 23q43 -9 39 -39z" />
    <glyph glyph-name="glyph282" horiz-adv-x="1194" 
d="M1106 467q0 -234 -177 -361q-158 -114 -407 -114q-21 0 -108.5 4t-128.5 4q-85 0 -148 -8q-28 0 -28 39q0 30 28 35q90 6 90 100v553q0 49 -23.5 71.5t-88.5 32.5q-29 5 -29 35q0 29 23 35q97 10 440 10q241 0 393 -109q164 -118 164 -327zM911 449q0 180 -99.5 275
t-285.5 95q-127 0 -127 -59v-574q0 -69 37 -93q28 -17 103 -17q166 0 265 91q107 99 107 282z" />
    <glyph glyph-name="glyph283" horiz-adv-x="958" 
d="M879 193q-27 -82 -33 -187q-1 -13 -62 -10q-149 6 -258 6q-122 0 -389 -10q-28 -1 -28 33q0 35 28 38q90 12 90 101v518q0 81 -23 112q-16 22 -75 48q-26 11 -20 43q5 27 43 20q59 -10 307 -10q99 0 309 8q67 3 38 3q27 0 23 -17q-8 -45 -16 -176q-1 -18 -27 -21
q-32 -3 -41 19q-36 88 -104 104q-37 4 -207 4q-35 0 -35 -28v-263q0 -16 21 -16q76 0 137 4q52 4 70 78q7 28 43 20q29 -6 26 -20q-18 -100 -18 -248q0 -16 -31 -20q-29 0 -35 24q-7 48 -20 66q-17 22 -60 24q-46 2 -118 2q-15 0 -15 -10v-272q0 -52 41 -67q36 -13 162 -13
q89 0 134 28q40 25 71 91q13 28 49 20q29 -7 23 -26z" />
    <glyph glyph-name="glyph284" horiz-adv-x="881" 
d="M823 881q-14 -72 -18 -168q-1 -22 -29 -25q-25 -2 -37 23q-26 56 -53 77t-80 27q-35 4 -153 4q-54 0 -54 -28v-287q0 -15 21 -15q95 0 141 5q51 4 66 75q5 27 43 21q29 -5 26 -21q-22 -113 -14 -250q1 -16 -35 -18q-30 -1 -35 21q-11 51 -27 67.5t-65.5 22.5t-105.5 6
q-15 0 -15 -8v-258q0 -44 37 -64q26 -14 94 -25q35 -5 31 -43q-3 -28 -59 -24q-250 19 -365 -4q-28 -3 -28 35q0 26 28 34q50 15 68 45q22 35 22 115v459q0 77 -23 111q-19 28 -75 49q-27 10 -20 45q5 28 51 20q59 -10 274 -10q98 0 328 8q42 2 53 -2.5t8 -19.5z" />
    <glyph glyph-name="glyph285" horiz-adv-x="1165" 
d="M1108 408q6 -27 -35 -37q-69 -18 -69 -80v-174q0 -44 -109 -87q-126 -50 -305 -50q-213 0 -357 127q-147 132 -147 335q0 205 154 344q146 134 344 134q146 0 262 -31t119 -60q10 -51 10 -176q0 -29 -41 -30q-39 -2 -53 26q-48 95 -114 136q-70 42 -187 42
q-133 0 -217 -100t-84 -268q0 -166 92 -274q96 -111 252 -111q102 0 169 31q56 25 56 51v88q0 65 -24 89q-19 19 -91 42q-41 13 -39 41q4 40 45 30q154 -21 334 -4q30 3 35 -34z" />
    <glyph glyph-name="glyph286" horiz-adv-x="1288" 
d="M1208 27q0 -38 -30 -35q-199 20 -363 8q-28 -2 -35.5 4.5t-7.5 30.5q0 30 39 39q78 17 78 84v213q0 47 -39 47h-406q-30 0 -37.5 -7t-7.5 -38v-205q0 -42 28 -63q19 -15 73 -31q45 -14 45 -39q0 -23 -5.5 -30t-33.5 -5q-165 13 -369 -8q-20 -2 -24 4t-4 31q0 26 28 30
q90 6 90 101v561q0 82 -98 112q-37 12 -37 37q0 37 41 33q55 -5 188 -6q138 0 187 6q31 4 31 -33q0 -21 -31 -28q-65 -16 -84 -32q-25 -21 -25 -73v-178q0 -47 47 -47h400q27 0 35 8t8 45v178q0 43 -24 62q-17 14 -74 31q-37 10 -37 34q0 27 6.5 34.5t34.5 2.5
q78 -12 202 -7q80 5 160 9q22 1 26.5 -4.5t4.5 -32.5q0 -19 -31 -26q-96 -24 -96 -103v-583q0 -45 35 -68q18 -13 82 -33q30 -9 30 -30z" />
    <glyph glyph-name="glyph287" horiz-adv-x="662" 
d="M557 33q0 -26 -13 -32q-6 -3 -36 -3q-174 16 -373 0q-31 -3 -31 35q0 20 35 30q67 20 90 58q17 28 17 86v534q0 44 -21.5 65t-79.5 36q-33 8 -32 28q0 13 7 33q5 6 23 4q158 -15 373 4q34 3 39 -11q2 -6 2 -21q0 -25 -37 -37q-62 -21 -83 -46t-21 -79v-537
q0 -52 19.5 -74.5t76.5 -37.5q45 -13 45 -35z" />
    <glyph glyph-name="glyph288" horiz-adv-x="643" 
d="M549 879q3 -25 -41 -37q-96 -28 -96 -111v-674q0 -154 -112 -252q-101 -88 -232 -88q-100 0 -154 31q-21 12 -21 33q0 19 15.5 62.5t46.5 43.5q15 0 47 -18q23 -14 46 -27q51 -26 93 -26q101 0 101 200v738q0 65 -105 88q-35 8 -33 37q3 28 35 26q212 -14 369 6
q36 5 41 -32z" />
    <glyph glyph-name="glyph289" horiz-adv-x="1128" 
d="M1087 35q0 -37 -26 -35q-207 12 -346 -8q-21 -3 -31 20q-8 25 25 51q13 12 13 24q0 18 -30 48q-77 81 -291 299v-274q0 -59 95 -86q38 -11 34 -39q-4 -38 -34 -35q-194 16 -367 -8q-25 -4 -29 31q-3 29 19 36q62 22 74 29q34 22 34 64v550q0 104 -94 129q-41 12 -41 35
q0 37 45 33q247 -20 369 0q29 5 29 -33q0 -20 -29 -28q-59 -18 -75 -29q-30 -22 -30 -70v-256q114 90 320 265q26 23 26 40q0 19 -36 39q-30 17 -27 45t43 23q156 -18 283 0q23 3 28 -31q4 -24 -1.5 -30t-30.5 -13q-91 -24 -183 -98q-85 -67 -276 -219q87 -93 330 -330
q94 -88 180 -108q30 -8 30 -31z" />
    <glyph glyph-name="glyph290" horiz-adv-x="897" 
d="M862 193q-33 -105 -33 -187q0 -13 -59 -10q-152 6 -258 6q-158 0 -375 -8q-35 -1 -35 35q0 26 35 32q90 17 90 101v522q0 74 -17 102q-20 30 -89 58q-22 8 -21 37q2 29 41 24q167 -19 355 0q25 3 29 1q8 -3 12 -23q6 -39 -35 -49q-61 -16 -79 -33q-24 -24 -24 -84v-541
q0 -67 60 -87q30 -9 121 -9q86 0 127 26q34 21 77 93q23 37 56 26q30 -7 22 -32z" />
    <glyph glyph-name="glyph291" horiz-adv-x="1495" 
d="M1421 31q0 -27 -8.5 -30.5t-34.5 -2.5q-239 10 -356 0q-33 -3 -33 33q0 22 33 30q56 15 74.5 34t17.5 61l-18 549q-1 14 -8 15q-8 2 -15 -11q-245 -490 -311 -662q-25 -70 -62 -70q-36 0 -45 41q-43 157 -297 687q-7 14 -16 14q-11 0 -12 -19l-23 -518q-2 -57 18 -77
t93 -39q31 -9 31 -35q0 -27 -13 -31q-7 -3 -30 -2q-201 8 -302 0q-28 -2 -28 33q0 28 24 35q65 17 86 36q29 25 31 82l21 500q4 104 -109 154q-30 13 -25 45q4 24 33 20q154 -20 273 -6q47 6 61 -27q102 -229 264 -606q12 -29 27 -6q84 187 287 596q13 35 45 35
q161 0 266 22q34 8 45 -34q2 -20 -39 -35q-55 -21 -73 -36q-29 -24 -27 -71l18 -573q2 -47 30 -68q20 -14 77 -26q30 -7 30 -37z" />
    <glyph glyph-name="glyph292" horiz-adv-x="1286" 
d="M1210 879q4 -27 -34 -39q-69 -20 -87 -40.5t-18 -68.5v-459q0 -181 4 -249q2 -30 -41 -43q-36 -12 -61 32q-62 108 -613 662q-11 11 -19 11q-13 0 -13 -21v-484q0 -52 27 -76q22 -21 85 -36q45 -11 41 -37q-4 -35 -45 -33q-221 8 -319 0q-29 -2 -29 33q0 28 23 35
q70 19 93 39t23 65v526q0 58 -28 88q-25 25 -101 58q-24 7 -18 41q4 27 33 22q118 -19 221 -8q40 4 72 -27q209 -222 528 -555q33 -33 33 11v393q0 82 -111 125q-37 14 -35 35q3 31 31 26q173 -13 315 4q39 5 43 -30z" />
    <glyph glyph-name="glyph293" horiz-adv-x="1202" 
d="M1116 451q0 -205 -156 -341q-149 -130 -356 -130q-218 0 -363 122q-155 131 -155 344q0 208 156 344q150 130 362 130q216 0 361 -127q151 -132 151 -342zM924 438q0 173 -95 281t-254 108q-132 0 -214 -100t-82 -262q0 -174 92 -281q96 -110 258 -110q132 0 213.5 100
t81.5 264z" />
    <glyph glyph-name="glyph294" horiz-adv-x="940" 
d="M883 651q0 -133 -109 -206q-105 -70 -291 -70q-11 0 -41.5 2t-33.5 2q-9 0 -9 -23v-198q0 -42 23 -58q17 -12 84 -26q39 -9 39 -39q0 -23 -5.5 -30t-33.5 -5q-178 14 -369 -8q-28 0 -28 35q0 22 28 30q50 15 68 33q22 21 22 68v551q0 51 -24 76q-20 20 -74 36
q-37 11 -37 37q0 32 11 38q8 4 30 1q62 -8 115 -8q28 0 132.5 4t151.5 4q162 0 254 -61q97 -65 97 -185zM692 635q0 190 -203 190q-53 0 -70 -13q-20 -15 -20 -62v-281q0 -20 95 -20q198 0 198 186z" />
    <glyph glyph-name="glyph295" horiz-adv-x="1202" 
d="M1534 -186q10 -36 -14 -47q-129 -60 -318 -60q-384 0 -629 273q-207 9 -342 131q-145 129 -145 335q0 208 156 344q150 130 362 130q216 0 361 -127q151 -132 151 -342q0 -154 -93 -274q-87 -114 -230 -165q165 -219 440 -219q141 0 262 41q31 11 39 -20zM924 438
q0 173 -95 281t-254 108q-132 0 -214 -100t-82 -262q0 -174 92 -281q96 -110 258 -110q132 0 213.5 100t81.5 264z" />
    <glyph glyph-name="glyph296" horiz-adv-x="1016" 
d="M993 4q0 -22 -30 -22q-258 0 -474 407q-28 -2 -90 -6v-227q0 -45 33 -63q9 -6 73 -23q34 -10 34 -37q0 -38 -43 -35q-180 14 -365 -8q-29 0 -29 35q0 24 29 30q96 22 96 101v557q0 54 -23 78q-19 18 -75 34q-41 13 -37 39q4 25 12 31t35 2q32 -4 103 -4q20 0 123 2t167 2
q357 0 357 -219q0 -191 -217 -254q127 -321 295 -379q26 -9 26 -41zM698 659q0 166 -209 166q-53 0 -70 -13q-20 -15 -20 -62v-299q167 6 236 57q63 48 63 151z" />
    <glyph glyph-name="glyph297" horiz-adv-x="811" 
d="M723 231q0 -118 -92.5 -184.5t-245.5 -66.5q-210 0 -254 79q-20 37 -43 113q-14 47 27 66q41 13 67 -23q101 -141 240 -141q160 0 160 119q0 49 -40 87q-43 43 -163 103q-163 82 -217 139q-60 63 -60 164q0 102 83 168t214 66q104 0 179 -21q72 -20 81 -49
q19 -57 23 -141q2 -43 -37 -45q-46 -3 -61 28q-37 76 -82.5 105.5t-122.5 29.5q-135 0 -135 -98q0 -51 39 -87q36 -33 147 -89q172 -88 230 -149q63 -66 63 -173z" />
    <glyph glyph-name="glyph298" horiz-adv-x="1085" 
d="M1016 662q-1 -28 -25 -31q-37 -5 -47 26q-32 98 -78.5 128t-165.5 30q-58 0 -63 -13q-2 -4 -2 -11v-603q0 -60 28 -87q24 -23 95 -42q30 -8 36 -12q12 -9 9 -35q-3 -25 -51 -20q-202 19 -394 0q-50 -5 -53 26q-2 31 31 41q80 25 103.5 52.5t23.5 105.5v574q0 24 -68 24
q-112 0 -164 -35q-48 -32 -90 -129q-13 -30 -43 -24q-34 6 -26 30q22 74 22 232q0 19 62 14q136 -10 311 -10q343 0 475 12q53 5 57 -10q21 -74 17 -233z" />
    <glyph glyph-name="glyph299" horiz-adv-x="1225" 
d="M1165 870q0 -20 -43 -36q-53 -21 -72 -42q-24 -26 -24 -77v-338q0 -188 -106 -292.5t-306 -104.5q-415 0 -415 378v361q0 54 -23 78q-19 20 -76 32q-37 9 -37 35q0 29 11 35q7 5 30 2q171 -17 379 0q21 2 25 -7q2 -4 2 -30q0 -19 -27 -26q-68 -18 -88 -36
q-24 -21 -24 -71v-348q0 -160 64 -232.5t204 -72.5q264 0 264 284v340q0 70 -22 94q-21 21 -93 35q-38 9 -38 39q0 26 10 31q5 3 35 2q253 -9 340 0q30 4 30 -33z" />
    <glyph glyph-name="glyph300" horiz-adv-x="1147" 
d="M1110 874q0 -35 -45 -49q-49 -15 -102 -116q-190 -360 -324 -693q-10 -23 -74 -41q-26 -7 -39 41q-45 180 -331 711q-47 86 -123 107q-35 9 -35 26q0 48 29 43q114 -19 346 10q27 7 34 2q7 -4 7 -28t-35 -39q-53 -23 -53 -58q0 -17 12 -40q135 -279 229 -500q13 -30 27 0
l215 463q11 24 11 43q0 47 -71 82q-29 14 -28 45t43 24q142 -23 276 -2q31 5 31 -31z" />
    <glyph glyph-name="glyph301" horiz-adv-x="1612" 
d="M1565 864q0 -30 -49 -51q-61 -25 -103 -125q-151 -358 -272 -672q-12 -29 -70 -41q-29 -5 -39 41q-25 122 -221 555q-127 -301 -219 -555q-10 -26 -72 -41q-29 -9 -39 41q-23 122 -291 707q-30 67 -112 96q-33 8 -33 33q0 41 29 37q113 -15 315 18q57 10 62 -28
q2 -22 -54 -48q-40 -18 -40 -59q0 -21 10 -45q53 -128 188 -471q4 -10 12 -11q9 -2 15 11q59 143 174 446q-8 15 -17 33q-30 65 -112 90q-34 11 -31 41q4 42 33 37q137 -24 338 -6q42 4 45 -31q2 -25 -41 -41q-61 -22 -61 -58q0 -18 12 -48q50 -127 186 -463q13 -31 25 0
q67 180 178 451q10 24 10 42q0 45 -86 78q-30 12 -29 45q1 21 8 25q7 5 37 0q153 -26 279 -2q35 7 35 -31z" />
    <glyph glyph-name="glyph302" horiz-adv-x="1153" 
d="M1094 25q-11 -33 -41 -29q-133 16 -332 0q-30 -2 -37 24q-5 20 33 46q22 14 22 32q0 27 -48 87.5t-138 181.5q-88 -95 -150 -181q-20 -28 -20 -52q0 -41 53 -71q23 -12 15 -38q-10 -33 -43 -29q-201 23 -306 6q-26 -4 -30 29q-9 36 43 51q69 20 115 55q53 41 135 144
q57 72 137 155q-135 192 -223 293q-76 86 -158 100q-29 6 -29 35q0 37 25 31q178 -26 354 12q45 10 51 -30q3 -21 -43 -43q-32 -16 -32 -37q0 -27 51 -97q44 -60 108 -155q100 112 150 186q21 32 21 57q0 32 -38 50q-33 15 -26 45q2 30 51 24q156 -18 274 0q39 6 39 -30
q0 -26 -9 -34.5t-46 -21.5q-99 -32 -223 -186q-29 -35 -144 -160q116 -167 238 -299q73 -80 176 -115q33 -11 25 -36z" />
    <glyph glyph-name="glyph303" horiz-adv-x="1114" 
d="M1075 874q0 -31 -45 -49q-80 -32 -156 -129q-143 -185 -221 -321v-199q0 -58 24 -78q16 -14 85 -32q42 -12 37 -54q-4 -25 -47 -20q-180 21 -363 0q-38 -11 -45 26q-6 32 23 41q61 20 85 47q29 31 29 91v155q-89 171 -274 393q-53 64 -139 89q-33 9 -33 26q0 46 28 43
q182 -20 386 8q24 4 30 0q8 -4 15 -26q5 -21 -39 -39q-60 -25 -60 -56q0 -19 21 -47q48 -63 174 -254q14 -23 28 0q81 127 183 265q15 20 15 33q0 25 -81 53q-42 14 -39 45q4 30 54 24q186 -21 292 -4q33 5 33 -31z" />
    <glyph glyph-name="glyph304" horiz-adv-x="1022" 
d="M946 236q0 -116 -28 -234q-4 -15 -58 -12q-236 12 -319 12q-309 0 -420 -8q-37 -3 -43 10q-10 17 10 43q212 273 282 366q163 215 271 373q9 14 9 19q0 10 -60 10h-156q-101 0 -152 -30q-56 -33 -108 -132q-13 -25 -45 -18q-31 7 -27 27q29 121 29 231q0 20 62 12
q79 -10 325 -10q232 0 361 8q33 2 39 -8q4 -12 -11 -39q-332 -413 -542 -721q-13 -19 -13 -28q0 -14 37 -17q83 -6 225 -6q126 0 179 32q50 30 84 124q11 31 41 26q28 -4 28 -30z" />
    <glyph glyph-name="glyph305" horiz-adv-x="737" 
d="M676 -229q-6 -30 -45 -23q-373 63 -373 254q0 57 29 141q30 91 30 142q0 97 -215 125q-18 2 -18 34q0 33 18 35q215 27 215 125q0 51 -30 141q-29 85 -29 142q0 191 373 254q39 6 45 -23q7 -36 -21 -43q-229 -56 -229 -162q0 -48 27 -133q28 -91 28 -151
q0 -125 -200 -185q200 -59 200 -184q0 -60 -28 -151q-27 -85 -27 -134q0 -105 229 -161q28 -7 21 -43z" />
    <glyph glyph-name="glyph306" horiz-adv-x="737" 
d="M653 444q0 -32 -18 -34q-215 -28 -215 -125q0 -51 31 -142q28 -84 28 -141q0 -191 -373 -254q-39 -7 -45 23q-6 36 21 43q229 56 229 161q0 49 -26 134q-29 91 -29 151q0 125 201 184q-201 60 -201 185q0 60 29 151q26 85 26 133q0 106 -229 162q-27 7 -21 43q6 29 45 23
q373 -63 373 -254q0 -57 -28 -142q-31 -90 -31 -141q0 -98 215 -125q18 -2 18 -35z" />
    <glyph glyph-name="glyph307" horiz-adv-x="1194" 
d="M1106 467q0 -234 -177 -361q-158 -114 -407 -114q-21 0 -108.5 4t-128.5 4q-85 0 -148 -8q-28 0 -28 39q0 30 28 35q90 6 90 100v553q0 49 -23.5 71.5t-88.5 32.5q-29 5 -29 35q0 29 23 35q97 10 440 10q241 0 393 -109q164 -118 164 -327zM911 449q0 180 -99.5 275
t-285.5 95q-127 0 -127 -59v-574q0 -69 37 -93q28 -17 103 -17q166 0 265 91q107 99 107 282zM633 489q-20 -70 -47 -69q-88 2 -266 2q-34 0 -101 -1t-100 -1q-30 0 -19 55q9 43 33 43q36 0 227 -3q114 -2 240 3q25 1 31.5 -5.5t1.5 -23.5z" />
    <glyph glyph-name="glyph308" horiz-adv-x="897" 
d="M862 193q-33 -105 -33 -187q0 -13 -59 -10q-152 6 -258 6q-158 0 -375 -8q-35 -1 -35 35q0 26 35 32q90 17 90 101v522q0 74 -17 102q-20 30 -89 58q-22 8 -21 37q2 29 41 24q167 -19 355 0q25 3 29 1q8 -3 12 -23q6 -39 -35 -49q-61 -16 -79 -33q-24 -24 -24 -84v-541
q0 -67 60 -87q30 -9 121 -9q86 0 127 26q34 21 77 93q23 37 56 26q30 -7 22 -32zM608 592q12 -69 -14 -80q-121 -48 -453 -201q-21 -11 -37 39q-13 45 9 53q90 37 181 74q94 41 271 129q38 19 43 -14z" />
    <glyph glyph-name="glyph309" horiz-adv-x="811" 
d="M723 231q0 -118 -92.5 -184.5t-245.5 -66.5q-210 0 -254 79q-20 37 -43 113q-14 47 27 66q41 13 67 -23q101 -141 240 -141q160 0 160 119q0 49 -40 87q-43 43 -163 103q-163 82 -217 139q-60 63 -60 164q0 102 83 168t214 66q104 0 179 -21q72 -20 81 -49
q19 -57 23 -141q2 -43 -37 -45q-46 -3 -61 28q-37 76 -82.5 105.5t-122.5 29.5q-135 0 -135 -98q0 -51 39 -87q36 -33 147 -89q172 -88 230 -149q63 -66 63 -173zM670 1388q-139 -176 -221 -325q-14 -25 -50 -25t-49 25q-65 124 -221 325q-11 15 12 29q31 19 54 6
q114 -92 204 -192q79 87 205 192q18 15 54 -6q23 -14 12 -29z" />
    <glyph glyph-name="glyph310" horiz-adv-x="1114" 
d="M1075 874q0 -31 -45 -49q-80 -32 -156 -129q-143 -185 -221 -321v-199q0 -58 24 -78q16 -14 85 -32q42 -12 37 -54q-4 -25 -47 -20q-180 21 -363 0q-38 -11 -45 26q-6 32 23 41q61 20 85 47q29 31 29 91v155q-89 171 -274 393q-53 64 -139 89q-33 9 -33 26q0 46 28 43
q182 -20 386 8q24 4 30 0q8 -4 15 -26q5 -21 -39 -39q-60 -25 -60 -56q0 -19 21 -47q48 -63 174 -254q14 -23 28 0q81 127 183 265q15 20 15 33q0 25 -81 53q-42 14 -39 45q4 30 54 24q186 -21 292 -4q33 5 33 -31zM876 1372q0 -19 -22 -53q-119 -145 -256 -264
q-21 -18 -54 2q-23 14 -12 28q59 79 109 200q47 113 59 126q27 29 49 29q40 0 85 -26q42 -25 42 -42z" />
    <glyph glyph-name="glyph311" horiz-adv-x="950" 
d="M883 481q0 -133 -109 -206q-105 -70 -291 -70q-11 0 -41.5 2t-33.5 2q-9 0 -9 -23v-28q0 -42 23 -58q17 -12 84 -26q39 -9 39 -39q0 -23 -5.5 -30t-33.5 -5q-178 14 -369 -8q-28 0 -28 35q0 22 28 30q50 15 68 33q22 21 22 68v551q0 51 -24 76q-20 20 -74 36
q-37 11 -37 37q0 31 11 36q7 4 30 3q178 -10 356 10q29 0 29 -35q0 -23 -29 -30q-90 -22 -90 -72v-29q0 -16 27 -16q4 0 41 1t65 1q162 0 254 -61q97 -65 97 -185zM692 465q0 190 -203 190q-53 0 -70 -13q-20 -15 -20 -62v-281q0 -20 95 -20q198 0 198 186z" />
    <glyph glyph-name="glyph312" horiz-adv-x="1022" 
d="M946 236q0 -116 -28 -234q-4 -15 -58 -12q-236 12 -319 12q-309 0 -420 -8q-37 -3 -43 10q-10 17 10 43q212 273 282 366q163 215 271 373q9 14 9 19q0 10 -60 10h-156q-101 0 -152 -30q-56 -33 -108 -132q-13 -25 -45 -18q-31 7 -27 27q29 121 29 231q0 20 62 12
q79 -10 325 -10q232 0 361 8q33 2 39 -8q4 -12 -11 -39q-332 -413 -542 -721q-13 -19 -13 -28q0 -14 37 -17q83 -6 225 -6q126 0 179 32q50 30 84 124q11 31 41 26q28 -4 28 -30zM789 1388q-139 -176 -221 -325q-14 -25 -50 -25t-49 25q-65 124 -221 325q-11 15 12 29
q31 19 54 6q114 -92 204 -192q79 87 205 192q18 15 54 -6q23 -14 12 -29z" />
    <glyph glyph-name="glyph313" horiz-adv-x="1149" 
d="M1114 29q-6 -36 -37 -33q-190 16 -325 2q-42 -5 -45 20q-5 38 34 50q63 18 63 43q0 7 -5 16q-29 50 -86 168q-95 -8 -172 -8q-87 0 -172 10q-11 -21 -66 -137q-9 -19 -9 -30q0 -26 79 -54q39 -14 30 -47q-4 -29 -32 -27q-165 13 -287 -8q-29 -5 -33 31q-4 38 47 53
q55 16 95 92q254 488 313 707q8 29 78 47q21 5 41 -39q154 -371 338 -725q37 -72 127 -99q28 -8 24 -32zM678 371q-39 82 -127 272q-13 29 -25 0q-41 -105 -120 -270q65 -8 151 -8q66 0 121 6zM815 1372q0 -19 -22 -53q-119 -145 -256 -264q-21 -18 -54 2q-23 14 -12 28
q59 79 109 200q47 113 59 126q27 29 49 29q40 0 85 -26q42 -25 42 -42z" />
    <glyph glyph-name="glyph314" horiz-adv-x="1149" 
d="M1114 29q-6 -36 -37 -33q-190 16 -325 2q-42 -5 -45 20q-5 38 34 50q63 18 63 43q0 7 -5 16q-29 50 -86 168q-95 -8 -172 -8q-87 0 -172 10q-11 -21 -66 -137q-9 -19 -9 -30q0 -26 79 -54q39 -14 30 -47q-4 -29 -32 -27q-165 13 -287 -8q-29 -5 -33 31q-4 38 47 53
q55 16 95 92q254 488 313 707q8 29 78 47q21 5 41 -39q154 -371 338 -725q37 -72 127 -99q28 -8 24 -32zM678 371q-39 82 -127 272q-13 29 -25 0q-41 -105 -120 -270q65 -8 151 -8q66 0 121 6zM639 1085q11 -14 -12 -28q-33 -20 -54 -2q-137 119 -256 264q-22 34 -22 53
q0 17 43.5 42.5t83.5 25.5q22 0 49 -29q12 -13 59 -126q50 -121 109 -200z" />
    <glyph glyph-name="glyph315" horiz-adv-x="1149" 
d="M1114 29q-6 -36 -37 -33q-190 16 -325 2q-42 -5 -45 20q-5 38 34 50q63 18 63 43q0 7 -5 16q-29 50 -86 168q-95 -8 -172 -8q-87 0 -172 10q-11 -21 -66 -137q-9 -19 -9 -30q0 -26 79 -54q39 -14 30 -47q-4 -29 -32 -27q-165 13 -287 -8q-29 -5 -33 31q-4 38 47 53
q55 16 95 92q254 488 313 707q8 29 78 47q21 5 41 -39q154 -371 338 -725q37 -72 127 -99q28 -8 24 -32zM678 371q-39 82 -127 272q-13 29 -25 0q-41 -105 -120 -270q65 -8 151 -8q66 0 121 6zM834 1065q11 -14 -12 -28q-35 -21 -54 -6q-119 94 -205 192q-69 -80 -204 -192
q-19 -16 -54 6q-23 14 -12 28q154 195 221 326q17 25 49 25q34 0 50 -25q56 -113 221 -326z" />
    <glyph glyph-name="glyph316" horiz-adv-x="1149" 
d="M1114 29q-6 -36 -37 -33q-190 16 -325 2q-42 -5 -45 20q-5 38 34 50q63 18 63 43q0 7 -5 16q-29 50 -86 168q-95 -8 -172 -8q-87 0 -172 10q-11 -21 -66 -137q-9 -19 -9 -30q0 -26 79 -54q39 -14 30 -47q-4 -29 -32 -27q-165 13 -287 -8q-29 -5 -33 31q-4 38 47 53
q55 16 95 92q254 488 313 707q8 29 78 47q21 5 41 -39q154 -371 338 -725q37 -72 127 -99q28 -8 24 -32zM678 371q-39 82 -127 272q-13 29 -25 0q-41 -105 -120 -270q65 -8 151 -8q66 0 121 6zM850 1198q0 -55 -31.5 -92t-78.5 -37q-97 0 -97 111q0 51 34 86.5t81 35.5
q92 0 92 -104zM488 1198q0 -55 -32.5 -92t-78.5 -37q-96 0 -96 111q0 51 34 86.5t80 35.5q93 0 93 -104z" />
    <glyph glyph-name="glyph317" horiz-adv-x="1149" 
d="M1114 29q-6 -36 -37 -33q-190 16 -325 2q-42 -5 -45 20q-5 38 34 50q63 18 63 43q0 7 -5 16q-29 50 -86 168q-95 -8 -172 -8q-87 0 -172 10q-11 -21 -66 -137q-9 -19 -9 -30q0 -26 79 -54q39 -14 30 -47q-4 -29 -32 -27q-165 13 -287 -8q-29 -5 -33 31q-4 38 47 53
q55 16 95 92q254 488 313 707q8 29 78 47q21 5 41 -39q154 -371 338 -725q37 -72 127 -99q28 -8 24 -32zM678 371q-39 82 -127 272q-13 29 -25 0q-41 -105 -120 -270q65 -8 151 -8q66 0 121 6zM930 1309q-80 -106 -107 -138q-51 -59 -104 -59q-29 0 -148 35t-131 35
q-25 0 -53 -19l-94 -82q-14 -12 -45 15q-25 20 -11 30q65 91 105 137q53 62 104 62q29 0 149 -36t130 -36q29 0 53 21q55 46 96 82q12 10 43 -17q26 -17 13 -30z" />
    <glyph glyph-name="glyph318" horiz-adv-x="1149" 
d="M1114 29q-6 -36 -37 -33q-190 16 -325 2q-42 -5 -45 20q-5 38 34 50q63 18 63 43q0 7 -5 16q-29 50 -86 168q-95 -8 -172 -8q-87 0 -172 10q-11 -21 -66 -137q-9 -19 -9 -30q0 -26 79 -54q39 -14 30 -47q-4 -29 -32 -27q-165 13 -287 -8q-29 -5 -33 31q-4 38 47 53
q55 16 95 92q254 488 313 707q8 29 78 47q21 5 41 -39q154 -371 338 -725q37 -72 127 -99q28 -8 24 -32zM678 371q-39 82 -127 272q-13 29 -25 0q-41 -105 -120 -270q65 -8 151 -8q66 0 121 6zM764 1229q0 -85 -59 -144t-144 -59q-84 0 -143 59t-59 144t59 146t143 61
q85 0 144 -61t59 -146zM682 1229q0 56 -34.5 93.5t-86.5 37.5q-51 0 -85.5 -37.5t-34.5 -93.5q0 -57 34.5 -93t85.5 -36q52 0 86.5 36t34.5 93z" />
    <glyph glyph-name="glyph319" horiz-adv-x="1096" 
d="M989 248q-16 -120 -38 -161t-113 -72q-105 -35 -248 -35q-211 0 -355 127q-149 132 -149 335q0 205 154 344q148 134 352 134q133 0 242 -27q127 -32 131 -66q12 -61 12 -186q0 -25 -51 -29q-34 -2 -45 25q-79 190 -301 190q-131 0 -215 -97q-86 -102 -86 -271t93 -276
q97 -109 259 -109q171 0 254 190q14 33 65 23q43 -9 39 -39zM784 -233q0 -154 -385 -164q-11 -1 -15 21q-5 23 5 24q235 29 235 108q0 66 -168 99q-29 5 -10 32q15 21 100 152h90q-41 -58 -67 -102q-12 -21 14 -27q201 -48 201 -143z" />
    <glyph glyph-name="glyph320" horiz-adv-x="958" 
d="M879 193q-27 -82 -33 -187q-1 -13 -62 -10q-149 6 -258 6q-122 0 -389 -10q-28 -1 -28 33q0 35 28 38q90 12 90 101v518q0 81 -23 112q-16 22 -75 48q-26 11 -20 43q5 27 43 20q59 -10 307 -10q99 0 309 8q67 3 38 3q27 0 23 -17q-8 -45 -16 -176q-1 -18 -27 -21
q-32 -3 -41 19q-36 88 -104 104q-37 4 -207 4q-35 0 -35 -28v-263q0 -16 21 -16q76 0 137 4q52 4 70 78q7 28 43 20q29 -6 26 -20q-18 -100 -18 -248q0 -16 -31 -20q-29 0 -35 24q-7 48 -20 66q-17 22 -60 24q-46 2 -118 2q-15 0 -15 -10v-272q0 -52 41 -67q36 -13 162 -13
q89 0 134 28q40 25 71 91q13 28 49 20q29 -7 23 -26zM715 1372q0 -19 -22 -53q-119 -145 -256 -264q-21 -18 -54 2q-23 14 -12 28q59 79 109 200q47 113 59 126q27 29 49 29q40 0 85 -26q42 -25 42 -42z" />
    <glyph glyph-name="glyph321" horiz-adv-x="958" 
d="M879 193q-27 -82 -33 -187q-1 -13 -62 -10q-149 6 -258 6q-122 0 -389 -10q-28 -1 -28 33q0 35 28 38q90 12 90 101v518q0 81 -23 112q-16 22 -75 48q-26 11 -20 43q5 27 43 20q59 -10 307 -10q99 0 309 8q67 3 38 3q27 0 23 -17q-8 -45 -16 -176q-1 -18 -27 -21
q-32 -3 -41 19q-36 88 -104 104q-37 4 -207 4q-35 0 -35 -28v-263q0 -16 21 -16q76 0 137 4q52 4 70 78q7 28 43 20q29 -6 26 -20q-18 -100 -18 -248q0 -16 -31 -20q-29 0 -35 24q-7 48 -20 66q-17 22 -60 24q-46 2 -118 2q-15 0 -15 -10v-272q0 -52 41 -67q36 -13 162 -13
q89 0 134 28q40 25 71 91q13 28 49 20q29 -7 23 -26zM567 1085q11 -14 -12 -28q-33 -20 -54 -2q-137 119 -256 264q-22 34 -22 53q0 17 43.5 42.5t83.5 25.5q22 0 49 -29q12 -13 59 -126q50 -121 109 -200z" />
    <glyph glyph-name="glyph322" horiz-adv-x="958" 
d="M879 193q-27 -82 -33 -187q-1 -13 -62 -10q-149 6 -258 6q-122 0 -389 -10q-28 -1 -28 33q0 35 28 38q90 12 90 101v518q0 81 -23 112q-16 22 -75 48q-26 11 -20 43q5 27 43 20q59 -10 307 -10q99 0 309 8q67 3 38 3q27 0 23 -17q-8 -45 -16 -176q-1 -18 -27 -21
q-32 -3 -41 19q-36 88 -104 104q-37 4 -207 4q-35 0 -35 -28v-263q0 -16 21 -16q76 0 137 4q52 4 70 78q7 28 43 20q29 -6 26 -20q-18 -100 -18 -248q0 -16 -31 -20q-29 0 -35 24q-7 48 -20 66q-17 22 -60 24q-46 2 -118 2q-15 0 -15 -10v-272q0 -52 41 -67q36 -13 162 -13
q89 0 134 28q40 25 71 91q13 28 49 20q29 -7 23 -26zM750 1085q11 -14 -12 -28q-35 -21 -54 -6q-119 94 -205 192q-69 -80 -204 -192q-19 -16 -54 6q-23 14 -12 28q154 195 221 326q17 25 49 25q34 0 50 -25q56 -113 221 -326z" />
    <glyph glyph-name="glyph323" horiz-adv-x="958" 
d="M879 193q-27 -82 -33 -187q-1 -13 -62 -10q-149 6 -258 6q-122 0 -389 -10q-28 -1 -28 33q0 35 28 38q90 12 90 101v518q0 81 -23 112q-16 22 -75 48q-26 11 -20 43q5 27 43 20q59 -10 307 -10q99 0 309 8q67 3 38 3q27 0 23 -17q-8 -45 -16 -176q-1 -18 -27 -21
q-32 -3 -41 19q-36 88 -104 104q-37 4 -207 4q-35 0 -35 -28v-263q0 -16 21 -16q76 0 137 4q52 4 70 78q7 28 43 20q29 -6 26 -20q-18 -100 -18 -248q0 -16 -31 -20q-29 0 -35 24q-7 48 -20 66q-17 22 -60 24q-46 2 -118 2q-15 0 -15 -10v-272q0 -52 41 -67q36 -13 162 -13
q89 0 134 28q40 25 71 91q13 28 49 20q29 -7 23 -26zM764 1198q0 -55 -31.5 -92t-78.5 -37q-97 0 -97 111q0 51 34 86.5t81 35.5q92 0 92 -104zM402 1198q0 -55 -32.5 -92t-78.5 -37q-96 0 -96 111q0 51 34 86.5t80 35.5q93 0 93 -104z" />
    <glyph glyph-name="glyph324" horiz-adv-x="662" 
d="M557 33q0 -26 -13 -32q-6 -3 -36 -3q-174 16 -373 0q-31 -3 -31 35q0 20 35 30q67 20 90 58q17 28 17 86v534q0 44 -21.5 65t-79.5 36q-33 8 -32 28q0 13 7 33q5 6 23 4q158 -15 373 4q34 3 39 -11q2 -6 2 -21q0 -25 -37 -37q-62 -21 -83 -46t-21 -79v-537
q0 -52 19.5 -74.5t76.5 -37.5q45 -13 45 -35zM592 1372q0 -19 -22 -53q-119 -145 -256 -264q-21 -18 -54 2q-23 14 -12 28q59 79 109 200q47 113 59 126q27 29 49 29q40 0 85 -26q42 -25 42 -42z" />
    <glyph glyph-name="glyph325" horiz-adv-x="662" 
d="M557 33q0 -26 -13 -32q-6 -3 -36 -3q-174 16 -373 0q-31 -3 -31 35q0 20 35 30q67 20 90 58q17 28 17 86v534q0 44 -21.5 65t-79.5 36q-33 8 -32 28q0 13 7 33q5 6 23 4q158 -15 373 4q34 3 39 -11q2 -6 2 -21q0 -25 -37 -37q-62 -21 -83 -46t-21 -79v-537
q0 -52 19.5 -74.5t76.5 -37.5q45 -13 45 -35zM428 1085q11 -14 -12 -28q-33 -20 -54 -2q-137 119 -256 264q-22 34 -22 53q0 17 43.5 42.5t83.5 25.5q22 0 49 -29q12 -13 59 -126q50 -121 109 -200z" />
    <glyph glyph-name="glyph326" horiz-adv-x="662" 
d="M557 33q0 -26 -13 -32q-6 -3 -36 -3q-174 16 -373 0q-31 -3 -31 35q0 20 35 30q67 20 90 58q17 28 17 86v534q0 44 -21.5 65t-79.5 36q-33 8 -32 28q0 13 7 33q5 6 23 4q158 -15 373 4q34 3 39 -11q2 -6 2 -21q0 -25 -37 -37q-62 -21 -83 -46t-21 -79v-537
q0 -52 19.5 -74.5t76.5 -37.5q45 -13 45 -35zM606 1085q11 -14 -12 -28q-35 -21 -54 -6q-119 94 -205 192q-69 -80 -204 -192q-19 -16 -54 6q-23 14 -12 28q154 195 221 326q17 25 49 25q34 0 50 -25q56 -113 221 -326z" />
    <glyph glyph-name="glyph327" horiz-adv-x="662" 
d="M557 33q0 -26 -13 -32q-6 -3 -36 -3q-174 16 -373 0q-31 -3 -31 35q0 20 35 30q67 20 90 58q17 28 17 86v534q0 44 -21.5 65t-79.5 36q-33 8 -32 28q0 13 7 33q5 6 23 4q158 -15 373 4q34 3 39 -11q2 -6 2 -21q0 -25 -37 -37q-62 -21 -83 -46t-21 -79v-537
q0 -52 19.5 -74.5t76.5 -37.5q45 -13 45 -35zM620 1198q0 -55 -31.5 -92t-78.5 -37q-97 0 -97 111q0 51 34 86.5t81 35.5q92 0 92 -104zM258 1198q0 -55 -32.5 -92t-78.5 -37q-96 0 -96 111q0 51 34 86.5t80 35.5q93 0 93 -104z" />
    <glyph glyph-name="glyph328" horiz-adv-x="1286" 
d="M1210 879q4 -27 -34 -39q-69 -20 -87 -40.5t-18 -68.5v-459q0 -181 4 -249q2 -30 -41 -43q-36 -12 -61 32q-62 108 -613 662q-11 11 -19 11q-13 0 -13 -21v-484q0 -52 27 -76q22 -21 85 -36q45 -11 41 -37q-4 -35 -45 -33q-221 8 -319 0q-29 -2 -29 33q0 28 23 35
q70 19 93 39t23 65v526q0 58 -28 88q-25 25 -101 58q-24 7 -18 41q4 27 33 22q118 -19 221 -8q40 4 72 -27q209 -222 528 -555q33 -33 33 11v393q0 82 -111 125q-37 14 -35 35q3 31 31 26q173 -13 315 4q39 5 43 -30zM1010 1309q-80 -106 -107 -138q-51 -59 -104 -59
q-29 0 -148 35t-131 35q-25 0 -53 -19l-94 -82q-14 -12 -45 15q-25 20 -11 30q65 91 105 137q53 62 104 62q29 0 149 -36t130 -36q29 0 53 21q55 46 96 82q12 10 43 -17q26 -17 13 -30z" />
    <glyph glyph-name="glyph329" horiz-adv-x="1202" 
d="M1116 451q0 -205 -156 -341q-149 -130 -356 -130q-218 0 -363 122q-155 131 -155 344q0 208 156 344q150 130 362 130q216 0 361 -127q151 -132 151 -342zM924 438q0 173 -95 281t-254 108q-132 0 -214 -100t-82 -262q0 -174 92 -281q96 -110 258 -110q132 0 213.5 100
t81.5 264zM825 1372q0 -19 -22 -53q-119 -145 -256 -264q-21 -18 -54 2q-23 14 -12 28q59 79 109 200q47 113 59 126q27 29 49 29q40 0 85 -26q42 -25 42 -42z" />
    <glyph glyph-name="glyph330" horiz-adv-x="1202" 
d="M1116 451q0 -205 -156 -341q-149 -130 -356 -130q-218 0 -363 122q-155 131 -155 344q0 208 156 344q150 130 362 130q216 0 361 -127q151 -132 151 -342zM924 438q0 173 -95 281t-254 108q-132 0 -214 -100t-82 -262q0 -174 92 -281q96 -110 258 -110q132 0 213.5 100
t81.5 264zM656 1085q11 -14 -12 -28q-33 -20 -54 -2q-137 119 -256 264q-22 34 -22 53q0 17 43.5 42.5t83.5 25.5q22 0 49 -29q12 -13 59 -126q50 -121 109 -200z" />
    <glyph glyph-name="glyph331" horiz-adv-x="1202" 
d="M1116 451q0 -205 -156 -341q-149 -130 -356 -130q-218 0 -363 122q-155 131 -155 344q0 208 156 344q150 130 362 130q216 0 361 -127q151 -132 151 -342zM924 438q0 173 -95 281t-254 108q-132 0 -214 -100t-82 -262q0 -174 92 -281q96 -110 258 -110q132 0 213.5 100
t81.5 264zM862 1085q11 -14 -12 -28q-35 -21 -54 -6q-119 94 -205 192q-69 -80 -204 -192q-19 -16 -54 6q-23 14 -12 28q154 195 221 326q17 25 49 25q34 0 50 -25q56 -113 221 -326z" />
    <glyph glyph-name="glyph332" horiz-adv-x="1202" 
d="M1116 451q0 -205 -156 -341q-149 -130 -356 -130q-218 0 -363 122q-155 131 -155 344q0 208 156 344q150 130 362 130q216 0 361 -127q151 -132 151 -342zM924 438q0 173 -95 281t-254 108q-132 0 -214 -100t-82 -262q0 -174 92 -281q96 -110 258 -110q132 0 213.5 100
t81.5 264zM876 1198q0 -55 -31.5 -92t-78.5 -37q-97 0 -97 111q0 51 34 86.5t81 35.5q92 0 92 -104zM514 1198q0 -55 -32.5 -92t-78.5 -37q-96 0 -96 111q0 51 34 86.5t80 35.5q93 0 93 -104z" />
    <glyph glyph-name="glyph333" horiz-adv-x="1202" 
d="M1116 451q0 -205 -156 -341q-149 -130 -356 -130q-218 0 -363 122q-155 131 -155 344q0 208 156 344q150 130 362 130q216 0 361 -127q151 -132 151 -342zM924 438q0 173 -95 281t-254 108q-132 0 -214 -100t-82 -262q0 -174 92 -281q96 -110 258 -110q132 0 213.5 100
t81.5 264zM949 1299q-80 -106 -107 -138q-51 -59 -104 -59q-29 0 -148 35t-131 35q-25 0 -53 -19l-94 -82q-14 -12 -45 15q-25 20 -11 30q65 91 105 137q53 62 104 62q29 0 149 -36t130 -36q29 0 53 21q55 46 96 82q12 10 43 -17q26 -17 13 -30z" />
    <glyph glyph-name="glyph334" horiz-adv-x="1225" 
d="M1165 870q0 -20 -43 -36q-53 -21 -72 -42q-24 -26 -24 -77v-338q0 -188 -106 -292.5t-306 -104.5q-415 0 -415 378v361q0 54 -23 78q-19 20 -76 32q-37 9 -37 35q0 29 11 35q7 5 30 2q171 -17 379 0q21 2 25 -7q2 -4 2 -30q0 -19 -27 -26q-68 -18 -88 -36
q-24 -21 -24 -71v-348q0 -160 64 -232.5t204 -72.5q264 0 264 284v340q0 70 -22 94q-21 21 -93 35q-38 9 -38 39q0 26 10 31q5 3 35 2q253 -9 340 0q30 4 30 -33zM870 1372q0 -19 -22 -53q-119 -145 -256 -264q-21 -18 -54 2q-23 14 -12 28q59 79 109 200q47 113 59 126
q27 29 49 29q40 0 85 -26q42 -25 42 -42z" />
    <glyph glyph-name="glyph335" horiz-adv-x="1225" 
d="M1165 870q0 -20 -43 -36q-53 -21 -72 -42q-24 -26 -24 -77v-338q0 -188 -106 -292.5t-306 -104.5q-415 0 -415 378v361q0 54 -23 78q-19 20 -76 32q-37 9 -37 35q0 29 11 35q7 5 30 2q171 -17 379 0q21 2 25 -7q2 -4 2 -30q0 -19 -27 -26q-68 -18 -88 -36
q-24 -21 -24 -71v-348q0 -160 64 -232.5t204 -72.5q264 0 264 284v340q0 70 -22 94q-21 21 -93 35q-38 9 -38 39q0 26 10 31q5 3 35 2q253 -9 340 0q30 4 30 -33zM744 1085q11 -14 -12 -28q-33 -20 -54 -2q-137 119 -256 264q-22 34 -22 53q0 17 43.5 42.5t83.5 25.5
q22 0 49 -29q12 -13 59 -126q50 -121 109 -200z" />
    <glyph glyph-name="glyph336" horiz-adv-x="1225" 
d="M1165 870q0 -20 -43 -36q-53 -21 -72 -42q-24 -26 -24 -77v-338q0 -188 -106 -292.5t-306 -104.5q-415 0 -415 378v361q0 54 -23 78q-19 20 -76 32q-37 9 -37 35q0 29 11 35q7 5 30 2q171 -17 379 0q21 2 25 -7q2 -4 2 -30q0 -19 -27 -26q-68 -18 -88 -36
q-24 -21 -24 -71v-348q0 -160 64 -232.5t204 -72.5q264 0 264 284v340q0 70 -22 94q-21 21 -93 35q-38 9 -38 39q0 26 10 31q5 3 35 2q253 -9 340 0q30 4 30 -33zM883 1085q11 -14 -12 -28q-35 -21 -54 -6q-119 94 -205 192q-69 -80 -204 -192q-19 -16 -54 6q-23 14 -12 28
q154 195 221 326q17 25 49 25q34 0 50 -25q56 -113 221 -326z" />
    <glyph glyph-name="glyph337" horiz-adv-x="1225" 
d="M1165 870q0 -20 -43 -36q-53 -21 -72 -42q-24 -26 -24 -77v-338q0 -188 -106 -292.5t-306 -104.5q-415 0 -415 378v361q0 54 -23 78q-19 20 -76 32q-37 9 -37 35q0 29 11 35q7 5 30 2q171 -17 379 0q21 2 25 -7q2 -4 2 -30q0 -19 -27 -26q-68 -18 -88 -36
q-24 -21 -24 -71v-348q0 -160 64 -232.5t204 -72.5q264 0 264 284v340q0 70 -22 94q-21 21 -93 35q-38 9 -38 39q0 26 10 31q5 3 35 2q253 -9 340 0q30 4 30 -33zM897 1198q0 -55 -31.5 -92t-78.5 -37q-97 0 -97 111q0 51 34 86.5t81 35.5q92 0 92 -104zM535 1198
q0 -55 -32.5 -92t-78.5 -37q-96 0 -96 111q0 51 34 86.5t80 35.5q93 0 93 -104z" />
    <glyph glyph-name="glyph338" horiz-adv-x="915" 
d="M823 944q0 -110 -88 -110q-63 0 -114 75q-29 43 -54 60l-63 -623q33 -4 49 -4q107 0 217 72q13 8 25 8q20 0 20 -29q0 -37 -102 -89q-110 -57 -219 -58l-25 -264q-3 -27 -33 -11q-50 21 -45 68q6 65 21 213q-142 21 -224 114q-88 100 -88 265q0 183 114 305
q109 118 280 135q11 130 24 250q4 33 39 18q46 -18 41 -67q-10 -100 -20 -199q109 -6 175 -40q70 -35 70 -89zM483 987q-99 -1 -159 -74q-64 -79 -64 -221q0 -241 164 -321z" />
    <glyph glyph-name="glyph339" horiz-adv-x="1128" 
d="M1075 309q-71 -205 -86 -262q-11 -43 -29.5 -55t-62.5 -12q-95 0 -256.5 44t-234.5 44q-146 0 -314 -84q-2 -1 -5 -1q-12 0 -26.5 18.5t-14.5 35.5q0 12 9 18q271 172 271 443q0 28 -4 86h-177q-15 0 -10 47q6 51 23 51h147q-16 75 -33 151q-18 83 -18 138
q0 165 111.5 264.5t300.5 99.5q163 0 254 -64q79 -57 79 -141q0 -104 -88 -104q-68 0 -120 100q-64 121 -195 121q-166 0 -166 -209q0 -71 20 -178q17 -89 33 -178h308q21 0 14 -49t-25 -49h-286v-21q0 -247 -215 -413q101 36 208 36q91 0 212 -22.5t161 -22.5q72 0 154 183
q4 8 20 8q49 0 41 -23z" />
    <glyph glyph-name="glyph340" horiz-adv-x="997" 
d="M883 901q0 -181 -107 -310q-114 -136 -289 -136q-166 0 -269 117t-103 313q0 182 107 311q114 137 288 137q167 0 270 -117t103 -315zM721 858q0 194 -67 297q-63 98 -177 98q-93 0 -147 -87.5t-54 -233.5q0 -196 67 -299q64 -99 179 -99q93 0 146 88t53 236z" />
    <glyph glyph-name="glyph341" horiz-adv-x="940" 
d="M852 850q15 -2 15 -21q0 -24 -19 -82q-17 -52 -51 -49q-42 2 -119 6q0 -63 2 -198q0 -23 -82 -43q-25 -6 -40 -6q-26 0 -26 18q0 41 3.5 124.5t3.5 104.5q-47 4 -449 15q-24 0 -24 38q0 14 8 21q434 415 518 551q13 21 88 -5q14 -6 6 -42t-8 -107v-383q39 0 61 5
q51 9 74 38q8 20 39 15zM537 799v342q-79 -92 -310 -336z" />
    <glyph glyph-name="glyph342" horiz-adv-x="840" 
d="M729 1339q-8 -16 -37 -102q-11 -35 -31 -44q-16 -7 -57 -1q-129 17 -280 10q-24 -1 -29 -20q-9 -41 -29 -123q439 -48 439 -289q0 -144 -137 -227q-127 -78 -326 -78q-72 0 -129 14q-32 8 -21 39q14 36 43 31q45 -8 125 -8q130 0 211.5 51.5t81.5 142.5q0 92 -84.5 139.5
t-284.5 71.5q-30 4 -26 35q16 130 47 291q6 32 59 32q47 1 256 9q100 3 127 32q32 35 64 25q34 -8 18 -31z" />
    <glyph glyph-name="glyph343" horiz-adv-x="889" 
d="M793 737q0 -123 -105 -205q-100 -77 -237 -77q-145 0 -240 76q-107 85 -107 237q0 184 156 344q138 143 354 225q24 9 37 -16q15 -30 -16 -45q-273 -135 -338 -330q69 39 184 39q133 0 220 -65q92 -68 92 -183zM635 717q0 87 -51.5 140.5t-139.5 53.5q-79 0 -133 -47
q-57 -50 -57 -131q0 -98 59 -154q53 -51 136 -51q79 0 130 48q56 51 56 141z" />
    <glyph glyph-name="glyph344" horiz-adv-x="836" 
d="M764 1270q-41 -42 -181 -319q-120 -239 -218 -458q-6 -17 -160 -34q-36 -4 -36 22q0 5 3 8q226 281 426 705q7 14 -12 14q-244 0 -457 -26q-37 -5 -37 18q0 16 37 76q7 15 33 53q9 18 24 18q27 0 41.5 -18.5t77.5 -19.5q58 -2 436 -7q30 0 30 -16q0 -7 -7 -16z" />
    <glyph glyph-name="glyph345" horiz-adv-x="885" 
d="M778 700q0 -108 -100 -176q-96 -65 -238 -65q-150 0 -242 60.5t-92 160.5q0 131 207 231q-163 82 -163 205q0 96 87 156q84 57 214 57q129 0 206.5 -51t77.5 -143q0 -119 -170 -197q213 -104 213 -238zM606 1130q0 127 -160 127q-161 0 -161 -120q0 -87 186 -164
q135 56 135 157zM627 682q0 115 -221 197q-158 -64 -158 -189q0 -70 53.5 -116t144.5 -46q78 0 127 37q54 41 54 117z" />
    <glyph glyph-name="glyph346" horiz-adv-x="889" 
d="M784 1018q0 -187 -154 -347q-139 -144 -358 -225q-19 -7 -34 19q-17 29 16 45q110 53 203 138q97 88 129 169q-73 -43 -176 -43q-130 0 -217 67q-95 72 -95 195q0 127 103 213q100 82 237 82q149 0 243 -77q103 -85 103 -236zM637 1042q0 95 -54 155t-147 60
q-82 0 -131 -54.5t-49 -141.5q0 -93 48 -151q51 -62 140 -62q83 0 136 49q57 53 57 145z" />
    <glyph glyph-name="glyph347" horiz-adv-x="997" 
d="M883 428q0 -181 -107 -310q-114 -136 -289 -136q-166 0 -269 117t-103 313q0 182 107 311q114 137 288 137q167 0 270 -117t103 -315zM721 385q0 194 -67 297q-63 98 -177 98q-93 0 -147 -87.5t-54 -233.5q0 -196 67 -299q64 -99 179 -99q93 0 146 88t53 236z" />
    <glyph glyph-name="glyph348" horiz-adv-x="711" 
d="M602 31q0 -26 -16 -31q-8 -3 -41 -2q-241 6 -371 -2q-45 -3 -45 33q0 22 43 28q89 14 103 19q26 10 26 43v588q0 16 -20 16q-61 0 -125 -14q-37 -9 -47 18q-15 36 24 45q145 33 270 90q19 6 29 6q33 0 33 -28q-12 -59 -12 -189v-524q0 -30 24 -43q18 -11 76 -21
q49 -8 49 -32z" />
    <glyph glyph-name="glyph349" horiz-adv-x="846" 
d="M760 154q-30 -54 -60 -152q-10 -34 -55 -22q-115 28 -547 28q-29 0 -29 37q0 14 7 21q298 247 382 345q81 95 81 191q0 61 -41 99q-46 42 -127 42q-105 0 -213 -69q-27 -17 -49 10q-21 26 10 53q137 121 297 121q132 0 211 -56q84 -60 84 -169q0 -110 -96 -216
q-84 -94 -332 -280q-13 -12 0 -12q116 -10 159 -10q125 0 173 13q37 11 69 46q24 27 49 23q46 -17 27 -43z" />
    <glyph glyph-name="glyph350" horiz-adv-x="786" 
d="M678 291q0 -146 -140 -230q-128 -77 -325 -77q-57 0 -117 8q-31 4 -28 35q7 35 43 32q76 -6 108 -6q129 0 209 52q84 54 84 151q0 158 -211 158h-41q-22 0 -35 24q-14 22 23 37q136 55 180 88q53 39 53 94q0 109 -147 109q-108 0 -182 -35q-26 -12 -50 12q-17 26 17 45
q112 66 252 66q128 0 203 -43.5t75 -122.5q0 -113 -180 -196q209 -35 209 -201z" />
    <glyph glyph-name="glyph351" horiz-adv-x="940" 
d="M852 377q15 -2 15 -21q0 -24 -19 -82q-17 -52 -51 -49q-42 2 -119 6q0 -63 2 -198q0 -23 -82 -43q-25 -6 -40 -6q-26 0 -26 18q0 41 3.5 124.5t3.5 104.5q-47 4 -449 15q-24 0 -24 38q0 14 8 21q434 415 518 551q13 21 88 -5q14 -6 6 -42t-8 -107v-383q39 0 61 5
q51 9 74 38q8 20 39 15zM537 326v342q-79 -92 -310 -336z" />
    <glyph glyph-name="glyph352" horiz-adv-x="840" 
d="M729 866q-8 -16 -37 -102q-11 -35 -31 -44q-16 -7 -57 -1q-129 17 -280 10q-24 -1 -29 -20q-9 -41 -29 -123q439 -48 439 -289q0 -144 -137 -227q-127 -78 -326 -78q-72 0 -129 14q-32 8 -21 39q14 36 43 31q45 -8 125 -8q130 0 211.5 51.5t81.5 142.5q0 92 -84.5 139.5
t-284.5 71.5q-30 4 -26 35q16 130 47 291q6 32 59 32q47 1 256 9q100 3 127 32q32 35 64 25q34 -8 18 -31z" />
    <glyph glyph-name="glyph353" horiz-adv-x="889" 
d="M793 264q0 -123 -105 -205q-100 -77 -237 -77q-145 0 -240 76q-107 85 -107 237q0 184 156 344q138 143 354 225q24 9 37 -16q15 -30 -16 -45q-273 -135 -338 -330q69 39 184 39q133 0 220 -65q92 -68 92 -183zM635 244q0 87 -51.5 140.5t-139.5 53.5q-79 0 -133 -47
q-57 -50 -57 -131q0 -98 59 -154q53 -51 136 -51q79 0 130 48q56 51 56 141z" />
    <glyph glyph-name="glyph354" horiz-adv-x="836" 
d="M764 797q-41 -42 -181 -319q-120 -239 -218 -458q-6 -17 -160 -34q-36 -4 -36 22q0 5 3 8q226 281 426 705q7 14 -12 14q-244 0 -457 -26q-37 -5 -37 18q0 16 37 76q7 15 33 53q9 18 24 18q27 0 41.5 -18.5t77.5 -19.5q58 -2 436 -7q30 0 30 -16q0 -7 -7 -16z" />
    <glyph glyph-name="glyph355" horiz-adv-x="885" 
d="M778 227q0 -108 -100 -176q-96 -65 -238 -65q-150 0 -242 60.5t-92 160.5q0 131 207 231q-163 82 -163 205q0 96 87 156q84 57 214 57q129 0 206.5 -51t77.5 -143q0 -119 -170 -197q213 -104 213 -238zM606 657q0 127 -160 127q-161 0 -161 -120q0 -87 186 -164
q135 56 135 157zM627 209q0 115 -221 197q-158 -64 -158 -189q0 -70 53.5 -116t144.5 -46q78 0 127 37q54 41 54 117z" />
    <glyph glyph-name="glyph356" horiz-adv-x="889" 
d="M784 545q0 -187 -154 -347q-139 -144 -358 -225q-19 -7 -34 19q-17 29 16 45q110 53 203 138q97 88 129 169q-73 -43 -176 -43q-130 0 -217 67q-95 72 -95 195q0 127 103 213q100 82 237 82q149 0 243 -77q103 -85 103 -236zM637 569q0 95 -54 155t-147 60
q-82 0 -131 -54.5t-49 -141.5q0 -93 48 -151q51 -62 140 -62q83 0 136 49q57 53 57 145z" />
    <glyph glyph-name="glyph357" horiz-adv-x="1004" 
d="M905 672q0 -180 -203 -260q125 -68 125 -191q0 -114 -91.5 -181t-246.5 -67q-337 0 -337 158q0 88 84 88q77 0 114 -82q26 -56 61 -77t113 -21q172 0 172 125q0 58 -51.5 94.5t-231.5 104t-243 119.5q-72 60 -72 157q0 180 203 260q-125 68 -125 191q0 114 92 180.5
t246 66.5q338 0 338 -157q0 -88 -84 -88q-77 0 -115 82q-25 56 -59 76q-37 22 -115 22q-172 0 -172 -125q0 -59 51.5 -95t232 -104t243.5 -120q71 -59 71 -156zM770 616q0 56 -54 95.5t-212 99.5q-46 17 -129 51q-142 -60 -142 -168q0 -55 54.5 -95t212.5 -99
q46 -18 129 -51q141 60 141 167z" />
    <glyph glyph-name="glyph358" horiz-adv-x="1085" 
d="M1014 1315q3 -17 3 -27q0 -31 -52 -45q-65 -16 -85 -29q-38 -23 -38 -71q0 -335 -39 -619q-37 -267 -137 -408t-246 -141q-94 0 -185.5 33t-91.5 66q0 51 46 97t92 46q25 0 85 -77t99 -77q74 0 138 125q63 122 79 285q2 16 2 29q0 66 -59 84q-262 80 -366 160
q-118 90 -118 233q0 192 132 260q103 52 391 64q198 7 274 30q30 9 45 9q25 0 31 -27z" />
    <glyph glyph-name="glyph359" horiz-adv-x="1493" 
d="M1434 1290q0 -34 -64 -53q-74 -22 -162 -137q-168 -221 -200 -264q-87 -118 -158 -230h350q12 0 12 -10q0 -21 -16 -45q-18 -27 -39 -27h-317v-180h360q12 0 12 -10q0 -21 -16 -45q-18 -27 -39 -27h-317v-65q0 -71 27 -97q21 -20 102 -39q59 -13 53 -49q-4 -23 -24 -25
q-2 -1 -42 3q-191 17 -376 2q-60 -11 -66 24q-6 33 35 43q82 22 106.5 53.5t24.5 112.5v37h-346q-15 0 -15 23q0 59 54 59h307v180h-346q-15 0 -15 23q0 59 54 59h289q-95 175 -392 529q-80 95 -164 112q-49 10 -49 29q0 46 43 41q181 -22 441 18q36 6 45 4q16 -5 16 -34
q0 -22 -51 -41q-87 -33 -87 -71q0 -19 21 -48q118 -157 291 -426q12 -19 19 -19t20 19q83 115 268 383q26 38 26 66q0 53 -91 83q-49 17 -45 47q4 35 67 27q197 -24 351 -4q43 5 43 -31z" />
    <glyph glyph-name="glyph360" horiz-adv-x="1444" 
d="M1364 193q-26 -82 -33 -187q-1 -13 -61 -10q-150 6 -258 6q-117 0 -383 -10q-29 -1 -29 33q0 35 29 38q90 12 90 101v125q-49 -2 -156 -2q-28 0 -157 6q-16 -23 -78 -127q-10 -16 -10 -32q0 -49 63 -71q49 -17 49 -47q0 -31 -43 -26q-148 16 -297 4q-37 -3 -37 29
q0 33 41 49q75 28 137 127q168 262 338 540q12 19 12 33q0 34 -87 68q-37 14 -31 41q7 35 37 30q109 -16 444 -16q99 0 309 8q67 3 38 3q27 0 24 -17q-8 -45 -17 -176q-1 -18 -26 -21q-32 -3 -41 19q-37 88 -105 104q-36 4 -206 4q-35 0 -35 -28v-263q0 -16 20 -16
q76 0 137 4q52 4 70 78q7 28 43 20q29 -6 27 -20q-19 -100 -19 -248q0 -16 -30 -20q-29 0 -35 24q-7 48 -21 66q-17 22 -59 24q-46 2 -119 2q-14 0 -14 -10v-272q0 -52 40 -67q37 -13 162 -13q89 0 134 28q40 25 71 91q14 28 49 20q29 -7 23 -26zM719 369v393q0 20 -9 20
t-20 -18q-99 -160 -239 -395q77 -4 129 -4q49 0 139 4z" />
    <glyph glyph-name="glyph361" horiz-adv-x="1202" 
d="M1116 451q0 -205 -156 -341q-149 -130 -356 -130q-218 0 -363 122q-155 131 -155 344q0 208 156 344q150 130 362 130q216 0 361 -127q151 -132 151 -342zM924 438q0 173 -95 281t-254 108q-132 0 -214 -100t-82 -262q0 -174 92 -281q96 -110 258 -110q132 0 213.5 100
t81.5 264zM205 -104q-21 -26 -51 0q-34 28 -15 51l865 1042q20 25 51 0q33 -28 14 -51q-265 -318 -864 -1042z" />
    <glyph glyph-name="glyph362" horiz-adv-x="655" 
d="M520 817q0 -48 -35 -84.5t-77 -36.5q-101 0 -101 109q0 50 33.5 85.5t77.5 35.5q102 0 102 -109zM547 53q0 -33 -43 -57q-48 -27 -125 -27q-129 0 -217 87q-82 81 -82 186q0 100 65 152q52 42 193 81q19 3 22 25q1 2 17 75q9 28 41 39q12 5 20 5q21 0 21 -31
q0 -139 6 -193q6 -57 -43 -57q-147 0 -204 -26q-48 -22 -48 -72q0 -66 38 -109q42 -47 116 -47q37 0 79 51q29 35 64 35q80 0 80 -117z" />
    <glyph glyph-name="glyph363" horiz-adv-x="496" 
d="M358 813q0 -48 -35 -84.5t-77 -36.5q-101 0 -101 109q0 50 33.5 85.5t77.5 35.5q102 0 102 -109zM346 90q5 -27 5 -43q0 -55 -105 -76q-31 -6 -49 -6q-51 0 -51 56q0 23 8 61q51 261 51 397q0 82 43 107q16 9 24 9q15 0 15 -38q0 -173 59 -467z" />
    <glyph glyph-name="glyph364" horiz-adv-x="1440" 
d="M1360 193q-27 -82 -33 -187q-1 -13 -61 -10q-150 6 -363 6q-60 0 -160 -4t-176 -4q-212 0 -344 120q-137 125 -137 335q0 197 146 329q141 127 335 127q37 0 169 -5t188 -5q115 0 325 8q67 3 38 3q27 0 24 -17q-8 -45 -17 -176q-1 -18 -26 -21q-32 -3 -41 19
q-37 88 -105 104q-37 4 -207 4q-34 0 -34 -28v-263q0 -16 20 -16q76 0 137 4q52 4 70 78q7 28 43 20q29 -6 27 -20q-19 -100 -19 -248q0 -16 -31 -20q-28 0 -34 24q-7 48 -21 66q-17 22 -59 24q-46 2 -119 2q-14 0 -14 -10v-272q0 -52 40 -67q36 -13 162 -13q89 0 134 28
q40 25 71 91q14 28 49 20q29 -7 23 -26zM709 143v586q0 54 -30 75t-110 21q-130 0 -212 -96q-85 -100 -85 -264q0 -171 98 -284q93 -109 226 -109q113 0 113 71z" />
    <glyph glyph-name="glyph365" 
d="M860 1198q0 -55 -31.5 -92t-78.5 -37q-97 0 -97 111q0 51 34 86.5t81 35.5q92 0 92 -104zM498 1198q0 -55 -32.5 -92t-78.5 -37q-96 0 -96 111q0 51 34 86.5t80 35.5q93 0 93 -104z" />
    <glyph glyph-name="glyph366" horiz-adv-x="2351" 
d="M2259 389q0 -178 -78 -291q-80 -118 -213 -118q-121 0 -201.5 110t-80.5 275q0 183 87 296q83 107 205 107q125 0 203 -105.5t78 -273.5zM1546 389q0 -178 -78 -291q-80 -118 -213 -118q-121 0 -201.5 110t-80.5 275q0 183 87 296q83 107 206 107q124 0 202 -105.5
t78 -273.5zM1274 1286q-213 -327 -830 -1302q-11 -22 -49 6q-34 25 -24 41q286 450 829 1300q14 21 48.5 -5t25.5 -40zM666 952q0 -177 -78 -291q-81 -118 -213 -118q-121 0 -202 110t-81 275q0 183 86 296q82 107 205 107q125 0 204 -105.5t79 -273.5zM2103 373
q0 327 -127 327q-135 0 -135 -317q0 -334 135 -334q127 0 127 324zM1391 373q0 327 -127 327q-136 0 -136 -317q0 -334 136 -334q127 0 127 324zM510 936q0 328 -127 328q-135 0 -135 -318q0 -336 135 -336q127 0 127 326z" />
    <glyph glyph-name="Euro" unicode="&#x20ac;" horiz-adv-x="936" 
d="M864 692q0 -110 -88 -110q-63 0 -114 75q-55 80 -107 80q-252 0 -254 -293h391q13 0 13 -10q0 -21 -17 -45q-18 -27 -39 -27h-342q39 -272 287 -272q106 0 217 72q13 8 25 8q20 0 20 -29q0 -36 -104 -90q-113 -57 -215 -57q-198 0 -302 113q-89 97 -93 255h-113
q-15 0 -15 23q0 59 54 59h78q21 163 135 266q124 111 321 111q111 0 186.5 -37t75.5 -92z" />
    <glyph glyph-name="glyph368" horiz-adv-x="1407" 
d="M1290 326q-12 -133 -43 -215q-19 -53 -136 -95q-125 -45 -280 -45q-207 0 -377 126q-174 129 -237 339h-158q-14 0 -14 23q0 59 53 59h99q-11 62 -11 127q0 27 2 53h-129q-14 0 -14 23q0 59 53 59h100q45 248 232 409q180 154 395 154q154 0 287 -47q123 -43 129 -88
q10 -77 10 -247q0 -28 -51 -33q-38 -4 -47 24q-55 173 -122 236q-71 67 -212 67q-160 0 -273 -119q-120 -129 -145 -356h525q12 0 12 -10q0 -21 -16 -45q-18 -27 -39 -27h-487q-1 -14 -1 -28q0 -79 13 -152h518q12 0 12 -10q0 -21 -16 -45q-18 -27 -39 -27h-457
q51 -176 169.5 -277.5t268.5 -101.5q125 0 197 68q64 61 121 213q16 43 71 31q40 -9 37 -43z" />
    <glyph glyph-name="glyph369" horiz-adv-x="1694" 
d="M1569 659q0 -263 -181 -457q-177 -190 -440 -225q47 -251 285 -251q146 0 235 51q20 8 33 -27q10 -25 -10 -37q-135 -78 -309 -78q-172 0 -294 93.5t-153 248.5q-269 37 -436 216q-174 185 -174 460q0 294 213 494q210 196 512 196q308 0 512 -191q207 -194 207 -493z
M1366 625q0 291 -159 460q-153 162 -404 162q-208 0 -341.5 -153.5t-133.5 -399.5q0 -295 155 -464q151 -164 410 -164q209 0 341 154t132 405z" />
    <glyph glyph-name="glyph370" horiz-adv-x="1112" 
d="M979 1294q0 -41 -52 -92q-48 -47 -79 -47q-40 0 -94 74q-67 90 -111 90q-268 0 -268 -381v-137q0 -46 86 -43l325 10q38 1 85 14t65 13q40 0 39 -52q-6 -196 -6 -294v-500q0 -352 -297 -469q-17 -7 -32 -1t-15 21q0 28 57 68q71 49 99 118q32 81 32 242v619
q0 61 -28 85.5t-101 24.5h-221q-85 0 -88 -36q-2 -21 0 -435q0 -53 33 -76q29 -21 106 -32q35 -5 43 -12t8 -33q0 -28 -11 -34q-6 -3 -40 -1q-194 10 -354 -6q-46 -5 -56 0t-10 35q0 25 58 41q69 19 69 100v389q0 61 -19 85q-13 16 -50 28q-58 18 -58 57q0 27 24 34
q8 2 50 3q36 1 45 16q6 11 6 54v90q0 219 139 357t351 138q105 0 187.5 -37.5t82.5 -87.5z" />
    <glyph glyph-name="glyph371" horiz-adv-x="1083" 
d="M983 653q0 -19 -18 -38t-41 -19h-316v-350q0 -49 -84 -49q-49 0 -49 20v379h-354q-19 0 -19 29q0 47 58 47h315v354q0 49 100 49q33 0 33 -14v-389h357q18 0 18 -19z" />
    <glyph glyph-name="glyph372" horiz-adv-x="1083" 
d="M983 653q0 -19 -18 -38t-41 -19h-803q-19 0 -19 29q0 47 58 47h805q18 0 18 -19z" />
    <glyph glyph-name="glyph373" horiz-adv-x="1083" 
d="M153 989q14 14 39 14q26 0 42 -17l309 -309l334 334q13 13 25 1q14 -14 14 -38q0 -26 -17 -43l-305 -305l331 -330q13 -13 -6 -32q-14 -14 -29 -14q-21 0 -43 22l-304 304l-335 -335q-13 -13 -32 5q-13 14 -13 30q0 20 22 43l308 307l-338 338q-13 13 -2 25z" />
    <glyph glyph-name="glyph374" horiz-adv-x="926" 
d="M776 102q-20 -23 -57 7l-586 471q-23 18 -23 36q0 19 23 37l584 469q27 22 39 22q27 0 27 -32q0 -16 -35 -53l-420 -443l426 -448q30 -32 30 -48q0 -8 -8 -18z" />
    <glyph glyph-name="glyph375" horiz-adv-x="1083" 
d="M895 838q0 -27 -18.5 -50.5t-42.5 -23.5h-625q-19 0 -19 35q0 57 58 57h629q18 0 18 -18zM895 483q0 -26 -18.5 -49.5t-42.5 -23.5h-625q-19 0 -19 36q0 58 58 58h629q18 0 18 -21z" />
    <glyph glyph-name="glyph376" horiz-adv-x="926" 
d="M793 582l-584 -469q-27 -22 -39 -22q-27 0 -27 32q0 16 35 53l420 442l-426 449q-31 32 -31 48q0 8 9 18q20 23 57 -7l586 -471q23 -18 23 -37q0 -18 -23 -36z" />
    <glyph glyph-name="glyph377" horiz-adv-x="840" 
d="M823 1290q0 -38 -18.5 -81.5t-36.5 -43.5q-23 0 -90 33q-63 31 -113 31q-68 0 -96 -61q-23 -49 -37 -195l-16 -170l221 2q23 0 26 -15q1 -5 -4 -36q-13 -43 -102 -39l-149 6l-66 -660q-22 -222 -125 -332q-87 -94 -215 -94q-131 0 -131 39q0 41 15 84t28 43
q19 0 73.5 -32.5t90.5 -32.5q49 0 69 55q23 61 43 264l62 602q7 70 -49 74l-84 6q-26 2 -17 27q11 37 119 37h43l19 166q16 144 117 250q109 114 257 114q166 0 166 -41z" />
    <glyph glyph-name="glyph378" horiz-adv-x="1126" 
d="M1006 -14q-3 -10 -9 -10q-7 0 -22 14l-440 420q-23 21 -23 39q0 17 20 36l443 422q15 14 22 14q6 0 9 -10q9 -35 -17 -71l-280 -391l284 -398q22 -30 13 -65zM578 -14q-3 -10 -9 -10q-7 0 -22 14l-441 420q-22 21 -22 39q0 17 20 36l443 422q15 14 22 14q6 0 9 -10
q9 -35 -17 -71l-280 -391l284 -398q22 -30 13 -65z" />
    <glyph glyph-name="glyph379" horiz-adv-x="1126" 
d="M1022 412l-442 -422q-15 -14 -23 -14q-6 0 -8 10q-10 35 16 71l281 392l-285 397q-22 30 -12 65q2 10 9 10t22 -14l440 -420q22 -21 22 -39q0 -17 -20 -36zM594 412l-442 -422q-15 -14 -23 -14q-6 0 -8 10q-10 35 16 71l281 392l-285 397q-22 30 -12 65q2 10 8 10
q8 0 23 -14l440 -420q22 -21 22 -39q0 -17 -20 -36z" />
    <glyph glyph-name="glyph380" horiz-adv-x="698" 
d="M578 -14q-3 -10 -9 -10q-7 0 -22 14l-441 420q-22 21 -22 39q0 17 20 36l443 422q15 14 22 14q6 0 9 -10q9 -35 -17 -71l-280 -391l284 -398q22 -30 13 -65z" />
    <glyph glyph-name="glyph381" horiz-adv-x="698" 
d="M594 412l-442 -422q-15 -14 -23 -14q-6 0 -8 10q-10 35 16 71l281 392l-285 397q-22 30 -12 65q2 10 8 10q8 0 23 -14l440 -420q22 -21 22 -39q0 -17 -20 -36z" />
    <glyph glyph-name="glyph382" horiz-adv-x="1194" 
d="M633 489q-20 -70 -47 -69q-88 2 -266 2q-34 0 -101 -1t-100 -1q-30 0 -19 55q9 43 33 43q36 0 227 -3q114 -2 240 3q25 1 31.5 -5.5t1.5 -23.5z" />
    <glyph glyph-name="glyph383" horiz-adv-x="897" 
d="M608 592q12 -69 -14 -80q-121 -48 -453 -201q-21 -11 -37 39q-13 45 9 53q90 37 181 74q94 41 271 129q38 19 43 -14z" />
    <glyph glyph-name="glyph384" horiz-adv-x="1202" 
d="M205 -104q-21 -26 -51 0q-34 28 -15 51l865 1042q20 25 51 0q33 -28 14 -51q-265 -318 -864 -1042z" />
  </font>
</defs>
</svg>
